<?xml version="1.0" standalone="no"?>
<!DOCTYPE svg PUBLIC "-//W3C//DTD SVG 1.1//EN" "http://www.w3.org/Graphics/SVG/1.1/DTD/svg11.dtd" >
<svg xmlns="http://www.w3.org/2000/svg">
<metadata>Generated by IcoMoon</metadata>
<defs>
<font id="icomoon" horiz-adv-x="1024">
<font-face units-per-em="1024" ascent="960" descent="-64" />
<missing-glyph horiz-adv-x="1024" />
<glyph unicode="&#x20;" horiz-adv-x="512" d="" />
<glyph unicode="&#xe87d;" glyph-name="shipping" d="M992.033 474.084c8.524 0 17.049-4.262 21.311-10.656 6.393-6.393 10.656-12.787 10.656-21.311v-181.145c0-24.508-8.524-47.95-27.704-63.933-15.983-19.18-39.426-27.704-63.933-27.704h-50.081c-6.393-24.508-21.311-47.95-41.557-63.933-21.311-17.049-45.819-27.704-75.655-27.704-28.77 0-51.147 10.656-74.589 27.704-21.311 15.983-35.163 39.426-41.557 63.933h-220.57c-6.393-24.508-21.311-47.95-41.557-63.933-21.311-17.049-45.819-27.704-74.589-27.704-29.836 0-54.343 10.656-75.655 27.704-20.246 15.983-35.163 39.426-41.557 63.933h-166.227c-8.524 0-14.918 4.262-21.311 8.524-5.328 6.393-7.459 14.918-7.459 23.442 0 7.459 2.131 13.852 7.459 20.246 6.393 6.393 12.787 8.524 21.311 8.524h166.227c6.393 26.639 21.311 47.95 41.557 64.999 21.311 18.114 45.819 26.639 75.655 26.639 28.77 0 53.278-8.524 74.589-26.639 20.246-17.049 35.163-38.36 41.557-64.999h220.57c6.393 26.639 20.246 47.95 41.557 64.999 23.442 18.114 45.819 26.639 74.589 26.639 29.836 0 54.343-8.524 75.655-26.639 20.246-17.049 35.163-38.36 41.557-64.999h50.081c7.459 0 13.852 4.262 20.246 10.656 6.393 4.262 10.656 11.721 10.656 20.246v150.243h-364.42c-8.524 0-14.918 4.262-20.246 10.656-6.393 6.393-8.524 11.721-8.524 20.246v241.881c0 8.524-4.262 15.983-10.656 22.377s-12.787 8.524-21.311 8.524h-301.553c-8.524 0-15.983 2.131-22.377 8.524s-8.524 14.918-8.524 20.246c0 8.524 2.131 17.049 8.524 23.442s13.852 8.524 22.377 8.524h301.553c25.573 0 45.819-8.524 64.999-27.704 17.049-15.983 26.639-37.294 26.639-63.933v-14.918h135.326c4.262 0 8.524 0 12.787-2.131s8.524-4.262 10.656-8.524l157.702-184.341zM629.744 474.084h237.619l-116.146 134.26h-121.473zM312.208 140.565c15.983 0 30.901 4.262 43.688 17.049 9.59 11.721 15.983 26.639 15.983 43.688 0 15.983-6.393 30.901-15.983 41.557-12.787 11.721-27.704 18.114-43.688 18.114-17.049 0-31.967-6.393-43.688-18.114-10.656-10.656-17.049-25.573-17.049-41.557 0-17.049 6.393-31.967 17.049-43.688 11.721-12.787 26.639-17.049 43.688-17.049zM765.070 140.565c17.049 0 31.967 4.262 43.688 17.049 10.656 11.721 17.049 26.639 17.049 43.688 0 15.983-6.393 30.901-17.049 41.557-11.721 11.721-26.639 18.114-43.688 18.114-15.983 0-30.901-6.393-41.557-18.114-11.721-10.656-18.114-25.573-18.114-41.557 0-17.049 6.393-31.967 18.114-43.688 10.656-12.787 25.573-17.049 41.557-17.049zM190.735 594.492c-8.524 0-15.983 2.131-20.246 8.524-6.393 5.328-10.656 11.721-10.656 20.246s4.262 17.049 10.656 23.442c4.262 4.262 11.721 7.459 20.246 7.459h133.195c8.524 0 17.049-3.197 23.442-7.459 4.262-6.393 8.524-14.918 8.524-23.442s-4.262-14.918-8.524-20.246c-6.393-6.393-14.918-8.524-23.442-8.524zM131.064 474.084c-8.524 0-17.049 1.066-23.442 7.459-4.262 6.393-8.524 12.787-8.524 21.311s4.262 14.918 8.524 20.246c6.393 6.393 14.918 10.656 23.442 10.656h133.195c7.459 0 15.983-4.262 20.246-10.656 6.393-5.328 10.656-11.721 10.656-20.246s-4.262-14.918-10.656-21.311c-4.262-6.393-12.787-7.459-20.246-7.459zM249.34 382.446c0-8.524-2.131-14.918-8.524-21.311s-14.918-10.656-22.377-10.656h-133.195c-8.524 0-14.918 4.262-21.311 10.656s-10.656 12.787-10.656 21.311c0 7.459 4.262 13.852 10.656 20.246s12.787 8.524 21.311 8.524h133.195c7.459 0 15.983-2.131 22.377-8.524s8.524-12.787 8.524-20.246z" />
<glyph unicode="&#xe900;" glyph-name="11" d="M831.108 589.101h-105.49c-23.084 0-48.016-17.468-58.513-37.759v148.476c0 40.416-34.61 67.729-74.648 67.729h-419.176c-42.064 0-73.042-28.648-73.042-67.729v-79.235h52.488v79.235c0 10.529 9.332 15.242 20.554 15.242h419.133c10.991 0 22.181-3.905 22.181-15.242v-449.734c0-11.012-11.568-17.898-22.181-17.898h-156.255v-52.488h156.245c38.747 0 74.669 28.869 74.669 70.386v236.845l10.845-7.863c16.261 27.766 38.61 57.526 47.69 57.526h105.481c49.926 0 140.424-129.402 140.424-157.389v-136.542h-73.482v-52.488h83.361c24.827 0 42.609 18.087 42.609 42.463v146.577c0.022 48.551-106.675 209.888-192.892 209.888zM152.725 250.083v87.076h-52.488v-87.076c0-40.101 32.404-70.386 73.042-70.386h31.933v52.488h-31.933c-11.347 0-20.554 7.034-20.554 17.898zM779.66 281.87c-54.042 0-98.025-43.963-98.025-98.025s43.963-98.057 98.025-98.057c67.593 0 98.025 57.327 98.025 98.057 0 54.062-43.974 98.025-98.025 98.025zM779.66 127.787c-30.894 0-56.036 25.152-56.036 56.078 0 30.894 25.142 56.036 56.036 56.036 30.873 0 56.036-25.152 56.036-56.036 0-14.56-10.287-56.078-56.036-56.078zM818.616 494.623h-68.947l-19.578-14.308v-98.414l17.636-15.746 157.242-0.431 16.261 15.043c0.010 30.306-50.777 113.856-102.613 113.856zM761.582 397.605v65.514h57.065c24.291 0 52.467-41.403 64.423-66.575l-121.488 1.060zM361.343 547.111c11.589 0 20.995 9.406 20.995 20.995s-9.406 20.995-20.995 20.995h-181.145c-11.589 0-20.995-9.406-20.995-20.995s9.406-20.995 20.995-20.995h181.145zM100.608 463.13h166.030c11.589 0 20.995 9.406 20.995 20.995s-9.406 20.995-20.995 20.995h-166.030c-11.589 0-20.995-9.406-20.995-20.995 0-11.61 9.385-20.995 20.995-20.995zM208.029 410.643c0 11.589-9.406 20.995-20.995 20.995h-166.039c-11.589 0-20.995-9.406-20.995-20.995s9.406-20.995 20.995-20.995h166.030c11.61 0 21.005 9.385 21.005 20.995zM319.784 281.87c-54.030 0-98.015-43.963-98.015-98.025s43.963-98.057 98.015-98.057c67.604 0 98.025 57.327 98.025 98.057 0 54.062-43.974 98.025-98.025 98.025zM319.784 127.787c-30.873 0-56.025 25.152-56.025 56.078 0 30.894 25.152 56.036 56.025 56.036 30.884 0 56.036-25.152 56.036-56.036 0-14.56-10.298-56.078-56.036-56.078z" />
<glyph unicode="&#xe901;" glyph-name="comments1" horiz-adv-x="1152" d="M832.003 554.667c0 176.801-186.202 320.003-416.004 320.003s-416.004-143.201-416.004-320.003c0-68.601 28.2-131.801 76.001-184.002-26.8-60.401-71.001-108.401-71.601-109.001-4.4-4.6-5.6-11.4-3-17.4s8.2-9.6 14.6-9.6c73.201 0 133.801 24.6 177.402 50 64.401-31.4 140.601-50 222.602-50 229.802 0 416.004 143.201 416.004 320.003zM1076.004 114.664c47.8 52 76.001 115.401 76.001 184.002 0 133.801-107.001 248.402-258.602 296.203 1.8-13.2 2.6-26.6 2.6-40.2 0-211.802-215.402-384.003-480.003-384.003-21.6 0-42.6 1.6-63.401 3.8 63.001-115.001 211.002-195.802 383.403-195.802 82.001 0 158.201 18.4 222.602 50 43.6-25.4 104.201-50 177.402-50 6.4 0 12.2 3.8 14.6 9.6 2.6 5.8 1.4 12.6-3 17.4-0.6 0.6-44.8 48.4-71.601 109.001z" />
<glyph unicode="&#xe902;" glyph-name="heart-solid" d="M749.714 867.005c-105.765 0-194.816-65.975-237.714-104.375-42.898 38.4-131.95 104.375-237.714 104.375-151.259 0-274.286-123.026-274.286-274.286 0-94.72 86.491-180.919 89.966-184.357l422.034-422.034 421.815 421.815c3.694 3.657 90.185 89.856 90.185 184.576 0 151.259-123.026 274.286-274.286 274.286z" />
<glyph unicode="&#xe903;" glyph-name="instagram" d="M301.091 938.667c-165.273 0-301.091-135.636-301.091-301.091v-421.818c0-165.273 135.636-301.091 301.091-301.091h421.818c165.273 0 301.091 135.636 301.091 301.091v421.818c0 165.273-135.636 301.091-301.091 301.091zM301.091 845.576h421.818c115.091 0 208-92.909 208-208v-421.818c0-115.091-92.909-208-208-208h-421.818c-115.091 0-208 92.909-208 208v421.818c0 115.091 92.909 208 208 208zM786.909 743.758c-23.455 0-42.182-18.727-42.182-42.182s18.727-42.182 42.182-42.182c23.455 0 42.182 18.727 42.182 42.182s-18.727 42.182-42.182 42.182zM512 705.94c-153.636 0-279.273-125.636-279.273-279.273s125.636-279.273 279.273-279.273c153.636 0 279.273 125.636 279.273 279.273s-125.636 279.273-279.273 279.273zM512 612.849c103.455 0 186.182-82.727 186.182-186.182s-82.727-186.182-186.182-186.182c-103.455 0-186.182 82.727-186.182 186.182s82.727 186.182 186.182 186.182z" />
<glyph unicode="&#xe904;" glyph-name="youtube1" d="M512 820.513c-148.308 0-279.385-15.385-359.385-27.077-66.154-9.692-119.538-59.538-131.692-125.538-10.308-56.154-20.923-138.308-20.923-241.231s10.615-185.077 20.923-241.231c12.154-66 65.538-116 131.692-125.538 80.308-11.692 211.846-27.077 359.385-27.077s279.077 15.385 359.385 27.077c66.154 9.538 119.538 59.538 131.692 125.538 10.308 56.308 20.923 138.615 20.923 241.231s-10.462 184.923-20.923 241.231c-12.154 66-65.538 115.846-131.692 125.538-80 11.692-211.077 27.077-359.385 27.077zM512 741.744c143.077 0 270.923-14.615 348.308-25.846 33.231-4.923 59.231-30 65.231-62.769 9.538-52 19.692-129.077 19.692-226.462 0-97.231-10.154-174.462-19.692-226.462-6-32.769-31.846-58-65.231-62.769-77.692-11.231-206.154-25.846-348.308-25.846s-270.769 14.615-348.308 25.846c-33.231 4.769-59.231 30-65.231 62.769-9.538 52-19.692 128.923-19.692 226.462 0 97.692 10.154 174.462 19.692 226.462 6 32.769 31.846 57.846 65.231 62.769 77.231 11.231 205.231 25.846 348.308 25.846zM393.846 651.898v-450.462l59.077 33.231 275.692 157.538 59.077 34.462-59.077 34.462-275.692 157.538zM472.615 516.513l156.308-89.846-156.308-89.846z" />
<glyph unicode="&#xe905;" glyph-name="pinterest" d="M512 938.667c-282.833 0-512-229.167-512-512 0-217 135-402.167 325.5-476.833-4.5 40.5-8.667 102.667 1.667 147 9.333 39.833 60 254.5 60 254.5s-15.167 30.667-15.167 76c0 71.167 41.167 124.333 92.5 124.333 43.667 0 64.833-32.833 64.833-72.167 0-44-28-109.667-42.5-170.5-12-51 25.667-92.5 75.833-92.5 91 0 161 96 161 234.5 0 122.5-88 208.167-213.833 208.167-145.667 0-231.167-109.167-231.167-222.167 0-44 17-91.167 38.167-116.833 4.167-5 4.667-9.5 3.5-14.667-4-16.167-12.5-51-14.167-58-2.333-9.5-7.5-11.5-17.167-6.833-64 29.667-104 123.167-104 198.333 0 161.5 117.333 309.833 338.333 309.833 177.667 0 315.667-126.5 315.667-295.833 0-176.333-111.333-318.333-265.667-318.333-51.833 0-100.667 26.833-117.333 58.667 0 0-25.667-97.667-32-121.667-11.5-44.5-42.667-100.167-63.667-134.167 48-14.833 98.833-22.833 151.667-22.833 282.833 0 512 229.167 512 512s-229.167 512-512 512z" />
<glyph unicode="&#xe906;" glyph-name="pinterest-p" d="M536.317 938.667c-207.943 0-413.418-138.573-413.418-362.94 0-142.656 80.216-223.749 128.874-223.749 20.069 0 31.678 55.946 31.678 71.756 0 18.841-48.077 58.999-48.077 137.433 0 162.93 124.031 278.386 284.545 278.386 138.028 0 240.148-78.378 240.148-222.468 0-107.596-43.2-309.424-183.030-309.424-50.46 0-93.595 36.454-93.595 88.716 0 76.591 49.038 150.779 49.038 229.827 0 134.178-185.83 109.835-185.83-52.317 0-34.036 4.243-71.71 19.438-102.715-27.933-120.375-79.356-312.236-79.356-436.297 0-38.296 5.474-75.978 9.12-114.315 6.881-7.7 3.474-6.89 14-3.040 102.149 139.83 92.672 179.701 138.873 362.701 24.943-47.429 89.398-72.956 140.473-72.956 215.234 0 311.903 209.757 311.903 398.859 0 201.226-173.876 332.543-364.781 332.543z" />
<glyph unicode="&#xe907;" glyph-name="google" d="M626.5 452c0 84.333 137 91.667 137 256.5 0 119.333-83 176.5-91.5 181.667h82.667l82.667 48.5h-267.833c-272.5 0-316.167-190.667-316.167-253.833 0-94.167 73.667-211.167 221.833-211.167 13.5 0 27.833 0.833 43 2.5-2.5-7-13.167-31-13.167-52.667 0-45.333 29-74.167 39-91.667-162.167 1.5-357.333-68.833-357.333-225.333 0-57.167 49.167-191.833 280.167-191.833 263.5 0 343.333 162.667 343.333 253.833-0.167 174.167-183.667 203-183.667 283.5zM537 510.167c-92.167 0-170 116-170 240 0 36.833 17.667 143.833 119.667 143.833 131.333 0 163.333-194.667 163.333-247.667 0-12.333 8.667-136.167-113-136.167zM530.667-29c-84.5 0-230.333 36-230.333 164 0 44.333 25.833 160.167 250.167 160.167 11.5 0 21.5-0.5 30-1.333 46.667-34.833 143.333-85.167 143.333-177.833 0-42-25-145-193.167-145z" />
<glyph unicode="&#xe908;" glyph-name="twitter" d="M1024 744.167c-37.667-16.667-78.167-28-120.667-33 43.333 26 76.667 67.167 92.333 116.167-40.5-24-85.5-41.5-133.333-51-38.333 40.833-93 66.5-153.333 66.5-116 0-210.167-94.167-210.167-210.167 0-16.5 1.833-32.5 5.5-47.833-174.667 8.667-329.5 92.333-433 219.5-18.167-31-28.5-67.167-28.5-105.667 0-72.833 37-137.167 93.5-174.833-34.5 1.167-66.833 10.5-95.167 26.333 0-1 0-1.833 0-2.667 0-101.833 72.333-186.833 168.5-206-17.667-4.833-36.167-7.5-55.333-7.5-13.5 0-26.833 1.333-39.5 3.833 26.667-83.5 104.333-144.167 196.167-146-71.833-56.333-162.5-89.833-260.833-89.833-17 0-33.667 1-50.167 3 93-59.667 203.333-94.5 322-94.5 386.5 0 597.833 320.167 597.833 597.833 0 9-0.333 18.167-0.667 27.167 41 29.667 76.667 66.667 104.833 108.667z" />
<glyph unicode="&#xe909;" glyph-name="facebook-f" d="M649.286 938.667c-144.165 0-228.714-76.149-228.714-249.643v-152.642h-182.857v-182.857h182.857v-438.857h182.857v438.857h146.286l36.571 182.857h-182.857v121.714c0 65.353 21.313 97.714 82.643 97.714h100.214v175.358c-17.335 2.341-67.843 7.499-137 7.499z" />
<glyph unicode="&#xe90a;" glyph-name="Coupon" d="M795.021 736.315l4.362 11.438c5.069 13.179 7.629 26.46 7.629 39.485 0 33.249-11.592 60.774-35.461 84.142-23.818 23.286-51.927 34.601-85.934 34.601-54.006 0-105.861-32.911-154.122-97.833l-0.655-1.219c-6.011-8.141-4.68-9.093-11.438-19.067l-7.342-10.803-7.424 10.793c-6.492 9.431-8.663 15.862-12.308 20.214l-5.11 7.014c-48.282 64.911-94.853 90.89-148.797 90.89-34.028 0-62.157-11.315-85.985-34.601-23.808-23.204-35.389-50.739-35.389-84.152 0-13.128 2.55-26.409 7.557-39.475l4.362-11.448h-228.966v-237.507h43.387v-551.434h937.236v551.455h43.377v237.507h-228.977zM587.948 766.728c35.267 48.067 67.215 71.434 97.679 71.434 33.649 0 52.173-18.084 52.173-50.913 0-32.84-18.524-50.924-52.173-50.924h-121.446l23.767 30.403zM338.43 838.152c30.403 0 62.024-22.856 96.256-69.243l7.598-10.199c4.116-4.751 7.639-9.308 7.127-8.55l10.895-13.855h-121.876c-33.71 0-52.275 18.084-52.275 50.924s18.565 50.924 52.275 50.924zM911.471 15.183h-364.892v424.202h-69.151v-424.202h-364.82v483.625h798.863v-483.625zM954.847 566.628h-408.269v42.435h-69.151v-42.435h-408.269v101.837h885.688v-101.837z" />
<glyph unicode="&#xe90b;" glyph-name="Dashboard" d="M811.592 204.255c-10.988 0-19.712-3.389-26.706-10.363-6.943-6.994-10.332-15.708-10.332-26.706 0-11.018 3.389-19.773 10.332-26.737 7.004-6.963 15.718-10.353 26.706-10.353 10.936 0 19.722 3.389 26.706 10.353 6.892 6.973 10.332 15.718 10.332 26.737 0 10.998-3.441 19.722-10.332 26.706-6.984 6.963-15.77 10.363-26.706 10.363zM684.698 603.164c10.998 0 19.773 3.389 26.706 10.353 6.953 7.004 10.332 15.718 10.332 26.716 0 11.018-3.379 19.763-10.332 26.737-6.943 6.973-15.708 10.363-26.706 10.363-10.936 0-19.661-3.389-26.655-10.363-6.943-6.973-10.332-15.718-10.332-26.737 0-10.998 3.389-19.712 10.332-26.716 6.994-6.963 15.718-10.353 26.655-10.353zM884.173 366.876c-6.994 6.994-15.708 10.383-26.706 10.383-10.988 0-19.712-3.389-26.706-10.383-6.892-6.953-10.332-15.688-10.332-26.685 0-11.018 3.441-19.773 10.332-26.737 7.004-6.963 15.718-10.363 26.706-10.363 10.998 0 19.722 3.4 26.706 10.363 6.892 6.973 10.332 15.718 10.332 26.737 0 10.998-3.441 19.743-10.332 26.685zM339.292 677.322c-10.998 0-19.712-3.389-26.655-10.363-6.994-6.973-10.322-15.718-10.322-26.737 0-10.998 3.328-19.712 10.322-26.716 6.943-6.963 15.657-10.353 26.655-10.353s19.712 3.389 26.655 10.353c7.004 7.004 10.332 15.718 10.332 26.716 0 11.018-3.328 19.763-10.332 26.737-6.932 6.973-15.657 10.363-26.655 10.363zM512 649.142c10.998 0 19.773 3.359 26.665 10.332 6.994 6.994 10.383 15.718 10.383 26.737 0 10.998-3.389 19.743-10.383 26.706-6.892 6.973-15.657 10.353-26.665 10.353s-19.661-3.389-26.665-10.353c-6.994-6.973-10.322-15.718-10.322-26.706 0-11.028 3.328-19.743 10.322-26.737 7.004-6.973 15.667-10.332 26.665-10.332zM795.771 547.991l-240.343-139.11-3 1.485c-13.496 6.717-27.095 10.158-40.428 10.158-21.883 0-40.325-7.834-56.31-23.88-16.046-16.077-23.88-34.54-23.88-56.453 0-21.965 7.782-40.397 23.88-56.474 15.995-16.077 34.427-23.859 56.31-23.859 21.944 0 40.428 7.393 56.535 22.61 15.882 15.155 23.665 34.038 23.665 57.723v3.564l240.671 139.295-37.1 64.942zM873.339 702.113c-100.004 100.127-221.573 150.907-361.339 150.907s-261.335-50.78-361.288-150.907c-99.953-100.147-150.712-221.932-150.712-361.923 0-122.327 39.485-231.946 117.34-325.857l9.39-14.019h770.601l8.94 13.486c78.295 94.464 117.729 204.083 117.729 326.39 0 139.971-50.637 261.745-150.661 361.923zM859.74 76.941l-1.894-2.468h-691.692l-1.833 2.468c-59.924 80.015-90.296 168.602-90.296 263.25 0 120.064 43.254 224.317 128.666 309.842 85.402 85.514 189.471 128.86 309.309 128.86s223.959-43.346 309.309-128.86c85.412-85.545 128.717-189.809 128.717-309.842 0-94.648-30.423-183.235-90.286-263.25zM212.47 550.264c-10.998 0-19.712-3.389-26.655-10.353-7.004-6.994-10.383-15.718-10.383-26.706 0-11.028 3.389-19.773 10.383-26.706 6.943-7.004 15.657-10.383 26.655-10.383s19.651 3.389 26.655 10.383c6.994 6.943 10.332 15.688 10.332 26.706 0 10.998-3.338 19.712-10.332 26.706-7.004 6.963-15.667 10.353-26.655 10.353zM212.47 204.255c-10.998 0-19.712-3.389-26.655-10.363-7.004-6.994-10.383-15.708-10.383-26.706 0-11.018 3.389-19.773 10.383-26.737 6.943-6.963 15.657-10.353 26.655-10.353s19.651 3.389 26.655 10.353c6.994 6.973 10.332 15.718 10.332 26.737 0 10.998-3.338 19.722-10.332 26.706-7.004 6.963-15.667 10.363-26.655 10.363zM203.581 340.191c0 10.998-3.338 19.743-10.332 26.685-7.004 6.994-15.657 10.383-26.655 10.383s-19.773-3.389-26.706-10.383c-6.943-6.953-10.332-15.688-10.332-26.685 0-11.018 3.389-19.773 10.332-26.737s15.718-10.363 26.706-10.363 19.651 3.4 26.655 10.363c6.994 6.963 10.332 15.718 10.332 26.737z" />
<glyph unicode="&#xe90c;" glyph-name="Log-Out" d="M341.31 908.618v-93.215c-76.442-31.949-138.271-83.466-185.303-154.419-47.217-71.045-70.697-149.115-70.697-234.332 0-117.166 41.718-217.467 125.286-300.861 83.569-83.476 184.054-125.153 301.404-125.153 117.289 0 217.723 41.677 301.343 125.164 83.569 83.405 125.348 183.695 125.348 300.861 0 85.217-23.613 163.287-70.697 234.332-47.094 70.953-108.923 122.47-185.303 154.419v93.204c101.356-35.564 183.552-97.208 246.63-185.047 63.078-87.88 94.679-186.87 94.679-296.909 0-140.247-50.207-260.526-150.641-360.806-100.434-100.26-220.959-150.426-361.359-150.426-140.524 0-260.936 50.156-361.359 150.415-100.424 100.291-150.641 220.57-150.641 360.817 0 110.049 31.478 209.039 94.618 296.909 63.14 87.839 145.336 149.484 246.692 185.047zM469.28 937.904h85.381v-511.252h-85.381v511.252z" />
<glyph unicode="&#xe90d;" glyph-name="Payment" d="M974.047 142.859l3.871 1.004c26.45 6.912 44.913 28.672 44.913 52.92v167.394c-0.010 25.928-18.534 49.275-45.015 56.73l-3.768 1.065v137.596c0 45.353-32.645 83.006-77.641 89.55l-2.396 0.348-1.26 2.058-156.765 254.804c-9.687 15.974-24.566 26.88-41.912 30.781-18.115 4.116-38.431-0.010-55.931-11.305l-437.702-275.499h-108.135c-50.248 0-91.137-40.714-91.137-90.748v-554.193c0-50.012 40.888-90.697 91.137-90.697h790.616c50.248 0 91.127 40.694 91.127 90.697v137.493zM816.247 650.316h-131.995l94.813 60.58 37.181-60.58zM729.023 792.172l15.616-25.375-182.222-116.481h-57.61l224.217 141.856zM679.122 873.437l15.544-25.354-312.578-197.776h-58.44l355.474 223.132zM908.255 5.365c0-13.844-11.356-25.098-25.334-25.098h-790.616c-13.978 0-25.344 11.264-25.344 25.098v554.203c0 13.906 11.366 25.211 25.344 25.211h790.616c13.967 0 25.334-11.305 25.334-25.211v-136.080h-154.932c-63.744 0-113.194-59.576-113.194-110.829v-60.344c0-61.112 50.043-110.808 111.566-110.808h156.56v-136.142zM751.684 207.043c-25.231 0-45.763 20.316-45.763 45.281v60.344c0 15.288 21.453 45.251 47.391 45.251l203.695 0.174 0.164-151.041h-205.487z" />
<glyph unicode="&#xe90e;" glyph-name="minus-solid" d="M176 457.212v-61.091h672v61.091z" />
<glyph unicode="&#xe90f;" glyph-name="plus-solid" d="M481.448 762.667v-305.449h-305.449v-61.088h305.449v-305.449h61.088v305.449h305.449v61.088h-305.449v305.449z" />
<glyph unicode="&#xe910;" glyph-name="angle-down-solid" d="M133.008 661.898l-46.238-46.238 402.104-402.104 23.126-22.121 23.126 22.121 402.104 402.104-46.238 46.238-378.972-378.972z" />
<glyph unicode="&#xe911;" glyph-name="angle-up-solid" d="M512.007 661.901l-23.123-22.117-402.111-402.111 46.24-46.24 378.987 378.987 378.987-378.987 46.24 46.24-402.111 402.111z" />
<glyph unicode="&#xe912;" glyph-name="angle-left-solid" d="M676.44 802.667l-352.944-352.944-22.064-23.056 22.064-23.056 352.944-352.944 46.128 46.128-329.872 329.872 329.872 329.872z" />
<glyph unicode="&#xe913;" glyph-name="angle-right-solid" d="M347.56 802.667l-46.128-46.128 329.872-329.872-329.872-329.872 46.128-46.128 352.944 352.944 22.064 23.056-22.064 23.056z" />
<glyph unicode="&#xe914;" glyph-name="Products" d="M813.916 471.051h-607.785c-16.753 0-30.249-16.722-30.249-32.758 0-16.056 13.496-32.829 30.249-32.829h607.785c16.691 0 30.188 16.773 30.188 32.829 0.010 16.046-13.558 32.758-30.188 32.758zM975.933 627.314c-30.126 26.788-70.246 40.407-112.63 40.407h-16.753c-11.254 39.342-44.759 66.877-85.821 72.1-35.441 98.57-137.318 166.943-252.826 166.943-117.258 0-219.761-70.093-254.013-170.506-33.567-9.718-59.945-42.342-69.693-68.567h-27.505c-88.32 0-156.692-62.566-156.692-142.193v-432.404c0-79.544 68.383-146.524 156.692-146.524h706.612c88.381 0 160.696 66.939 160.696 146.524v432.404c0.061 38.973-17.193 74.435-48.067 101.816zM747.039 699.311c23.501 0 43.745-18.504 54.129-31.59h-108.38c10.373 13.097 30.628 31.59 54.252 31.59zM507.904 849.266c86.129 0 162.386-48.906 192.256-119.316-25.375-12.37-44.687-36.035-52.746-62.259h-264.018c-9.38 26.225-33.935 56.883-65.505 67.471 31.375 67.625 105.687 114.104 190.013 114.104zM283.761 699.311c23.634 0 43.817-18.504 54.252-31.59h-108.38c10.373 13.097 30.628 31.59 54.129 31.59zM969.431 91.608c0-47.043-61.245-79.483-115.763-79.483h-698.912c-54.436 0-100.127 32.44-100.127 79.483v427.725c0 47.104 45.691 82.79 100.127 82.79h698.912c26.747 0 60.375-7.905 79.135-24.504 18.135-16.128 36.628-35.942 36.628-58.286v-427.725zM830.546 392.387h-641.044c-5.622 0-10.127-7.762-10.127-13.097s4.495-13.117 10.127-13.117h641.044c5.56 0 10.056 7.782 10.056 13.117s-4.495 13.097-10.056 13.097z" />
<glyph unicode="&#xe915;" glyph-name="Reports" d="M990.068 821.643c0 31.939-10.537 58.799-32.43 82.228s-47.053 34.796-76.821 34.796h-737.563c-29.829 0-54.99-11.377-76.811-34.806-21.893-23.419-32.512-50.289-32.512-82.218v-592.462c0-31.908 10.619-58.799 32.502-82.218 21.821-23.429 46.981-34.806 76.811-34.806h198.023v-187.414c0-3.011 0.86-5.14 2.734-7.137 2.396-2.529 4.27-2.939 5.734-2.939 2.939 0 5.212 0.543 6.81 1.679l243.069 195.811h281.183c29.768 0 54.928 11.377 76.821 34.806 21.893 23.419 32.43 50.309 32.43 82.218v592.462zM925.197 229.182c0-13.588-4.27-25.016-12.616-34.007-8.397-8.97-19.016-13.507-31.764-13.507h-302.81l-171.788-138.098v138.087h-262.966c-12.677 0-23.419 4.536-31.764 13.507-8.407 8.991-12.687 20.419-12.687 34.007v592.472c0 13.588 4.27 25.027 12.687 34.007 8.346 9.011 19.087 13.548 31.764 13.548h737.563c12.739 0 23.357-4.536 31.764-13.548 8.346-8.97 12.616-20.419 12.616-34.007v-592.462z" />
<glyph unicode="&#xe916;" glyph-name="Return" d="M760.596 780.5l22.17-19.63h2.427l7.434-7.363 54.057 58.962-12.227 9.8h-2.499v2.499l-27.095 19.63h-2.437l-19.661 14.766-44.329-66.365 19.732-12.298h2.427zM915.62 586.401l9.861-27.034v-2.437l9.871-31.969 73.851 22.129-7.434 31.939-2.427 4.925-9.8 31.939v2.468h-2.499l-2.499 4.905-68.915-34.396v-2.468zM851.692 696.962v-2.437l17.234-22.129 2.437-4.905 9.8-17.203 68.915 41.769-14.725 22.098v2.468l-22.098 27.034-2.499 2.437-9.861 9.861-59.064-49.162 9.861-9.83zM945.213 465.999v-39.301c0-119.613-42.26-221.594-126.73-305.91-84.541-84.378-186.747-126.556-306.483-126.556-119.808 0-221.942 42.179-306.473 126.556-84.541 84.316-126.74 186.296-126.74 305.91 0 75.325 17.603 144.527 52.941 207.616 35.205 63.058 83.282 115.026 143.964 156.017v-206.367h78.787v314.501h-315.085v-78.633h142.776c-121.487-101.581-182.17-232.653-182.17-393.134 0-140.913 50.074-261.315 150.211-361.196 100.014-99.973 220.631-149.934 361.789-149.934 141.087 0 261.714 49.961 361.789 149.944 100.137 99.871 150.211 220.273 150.211 361.185v39.301h-78.787zM647.414 834.557l27.044-9.8h4.925l31.959 71.24-2.427 2.468h-4.925l-31.969 12.268h-2.499v2.468l-34.458 7.363-19.661-76.165 29.532-7.373 2.478-2.468zM551.393 937.766h-39.393v-78.602h39.393v78.602z" />
<glyph unicode="&#xe917;" glyph-name="Reviews" d="M765.226-28.485l-0.891 0.061c-20.705 0.113-38.697 4.772-54.692 13.599l-197.96 108.032-198.349-108.032c-15.77-8.765-34.15-13.445-52.92-13.445l-4.997 0.061c-20.265 1.055-39.649 7.444-56.033 18.493-16.876 11.11-29.87 26.757-37.315 45.138-7.107 17.019-8.827 36.485-4.669 55.921l50.196 205.896-171.028 138.854c-15.882 12.769-27.208 29.624-32.758 48.671-5.663 18.268-4.997 38.922 1.884 57.784 6.554 18.104 18.432 34.007 34.212 45.896 16.097 11.909 35.318 19.098 55.747 21.012l229.11 19.743 90.849 193.608c8.55 17.93 22.211 32.952 39.649 43.448 38.758 21.965 81.408 19.548 114.115-0.143 17.766-11.1 31.273-26.184 39.475-43.899l90.634-193.096 229.437-19.968c20.326-1.966 39.096-9.052 54.641-20.49 16.435-12.216 28.426-28.426 34.99-47.094 6.554-18.463 7.209-38.226 1.884-56.965-5.99-19.436-17.213-36.045-32.696-48.783l-171.418-138.906 49.531-204.462c4.721-19.927 3.174-39.916-4.444-57.999-7.219-17.961-20.439-33.679-37.98-45.056-16.271-10.885-35.932-17.162-56.422-17.818l-1.782-0.061zM511.786 169.444l231.332-126.3c6.001-3.328 12.657-5.048 19.22-5.048l2.376-0.031c7.496 0.246 14.5 2.468 20.49 6.472 6.216 4.055 10.67 9.165 12.892 14.694 2.437 5.755 2.826 11.909 1.331 18.156l-59.31 244.347 203.807 165.089c5.335 4.332 9.052 9.83 10.988 16.21 1.444 5.059 1.219 10.998-0.891 16.876-2.222 6.277-6.216 11.663-11.663 15.749-5.437 3.994-12.216 6.492-19.876 7.25l-268.585 23.347-107.172 228.424c-2.888 6.164-7.444 11.213-13.66 15.135-10.721 6.328-29.379 6.973-41.103 0.358-6.83-4.106-11.489-9.165-14.275-15.104l-107.387-228.721-268.421-23.163c-7.67-0.686-14.664-3.246-20.541-7.578-5.11-3.86-9.114-9.247-11.325-15.329-2.109-5.693-2.335-11.633-0.778-16.855 1.997-6.554 5.55-11.796 10.885-16.108l203.684-165.335-59.802-245.125c-1.167-5.437-0.717-11.489 1.393-16.579 2.56-6.236 6.83-11.315 12.554-15.104 6.216-4.188 13.435-6.523 21.156-6.912 8.161 0 15.053 1.72 20.716 4.864l231.967 126.321z" />
<glyph unicode="&#xe918;" glyph-name="RMA" d="M760.596 780.495l22.17-19.661h2.427l7.434-7.404 54.057 59.003-12.227 9.8h-2.499v2.499l-27.095 19.661h-2.437l-19.661 14.725-44.329-66.355 19.732-12.268h2.427zM915.62 586.365l9.861-27.034v-2.468l9.871-31.939 73.851 22.108-7.434 31.959-2.427 4.936-9.8 31.939v2.468h-2.499l-2.499 4.905-68.915-34.396v-2.478zM851.692 696.926v-2.437l17.234-22.098 2.437-4.925 9.8-17.203 68.915 41.738-14.725 22.159v2.437l-22.098 27.034-2.499 2.437-9.861 9.861-59.064-49.132 9.861-9.871zM945.213 465.963v-39.301c0-119.624-42.26-221.573-126.73-305.91-84.541-84.378-186.747-126.546-306.483-126.546-119.808 0-221.942 42.168-306.473 126.546-84.541 84.337-126.74 186.286-126.74 305.91 0 75.325 17.603 144.527 52.941 207.616 35.205 63.058 83.282 115.026 143.964 156.047v-206.397h78.787v314.532h-315.085v-78.664h142.776c-121.487-101.581-182.17-232.653-182.17-393.134 0-140.913 50.074-261.284 150.211-361.226 100.014-99.953 220.631-149.832 361.789-149.832 141.087 0 261.714 49.879 361.789 149.832 100.137 99.942 150.211 220.314 150.211 361.226v39.301h-78.787zM647.414 834.531l27.044-9.8h4.925l31.959 71.229-2.427 2.499h-4.925l-31.969 12.237h-2.499v2.458l-34.458 7.404-19.661-76.165 29.532-7.404 2.478-2.458zM551.393 937.73h-39.393v-78.602h39.393v78.602z" />
<glyph unicode="&#xe919;" glyph-name="Setting" d="M512.051 620.387c-54.61 0-102.031-19.159-140.933-56.945-38.82-37.734-58.501-83.763-58.501-136.786 0-53.084 19.681-99.092 58.501-136.755 38.81-37.786 86.221-56.955 140.933-56.955 54.6 0 101.99 19.159 140.872 56.955 38.861 37.765 58.563 83.773 58.563 136.755 0 52.951-19.702 98.97-58.563 136.786-38.963 37.786-86.354 56.945-140.872 56.945zM602.604 338.419c-24.74-24.074-55.214-36.28-90.552-36.28-35.441 0-65.925 12.206-90.614 36.28-24.812 24.095-37.396 53.78-37.396 88.228 0 34.417 12.585 64.102 37.407 88.248 24.74 24.074 55.224 36.27 90.604 36.27 35.277 0 65.741-12.196 90.552-36.27 24.771-24.177 37.335-53.862 37.335-88.259 0-34.427-12.564-64.113-37.335-88.218zM1008.803 240.299l13.373 23.808-20.163 19.61-94.085 78.735 0.502 2.929c5.048 29.215 7.608 49.828 7.608 61.256 0 11.459-2.56 32.072-7.608 61.297l-0.502 2.929 94.362 78.981 19.876 19.354-13.425 23.9-81.725 139.121-13.404 23.849-29.286-8.765-122.747-40.602-2.212 1.802c-31.928 26.092-66.755 46.725-103.516 61.338l-2.621 1.044-23.532 119.613-6.636 28.17h-222.024l-6.799-28.375-23.48-119.419-2.621-1.044c-36.813-14.664-71.629-35.297-103.475-61.348l-2.202-1.782-122.9 40.663-29.133 8.724-13.281-23.757-81.951-139.315-13.373-23.808 20.204-19.61 94.034-78.725-0.502-2.929c-5.018-29.297-7.557-49.92-7.557-61.297 0-11.356 2.55-31.969 7.557-61.266l0.502-2.929-94.31-79.002-19.927-19.364 13.425-23.88 81.838-139.151 13.343-23.808 29.276 8.735 122.757 40.653 2.202-1.812c31.795-26.051 66.611-46.694 103.465-61.327l2.621-1.044 23.532-119.665 6.758-28.119h222.024l6.676 28.314 23.491 119.48 2.621 1.044c36.813 14.592 71.629 35.226 103.516 61.327l2.212 1.812 122.89-40.704 29.153-8.684 13.353 23.716 81.828 139.325zM880.005 161.861l-108.769 36.116-17.695 4.28-18.555-13.507c-35.85-31.508-77.783-55.276-124.232-70.339l-20.204-6.574-4.516-19.507-21.176-108.493h-105.728l-21.289 108.657-4.424 19.343-20.265 6.574c-46.52 15.104-88.412 38.871-124.539 70.636l-18.156 13.21-18.145-4.403-108.308-35.994-53.084 86.856 85.258 72.468 17.746 12.954-6.554 21.381c-5.284 21.955-7.905 45.773-7.905 71.107 0 25.293 2.632 49.121 7.823 70.83l6.636 21.668-17.449 12.728-85.555 72.735 53.084 86.835 108.728-36.106 17.725-4.28 18.545 13.486c35.82 31.529 77.711 55.306 124.16 70.369l20.265 6.554 4.454 19.517 21.248 108.462h105.738l21.207-108.626 4.485-19.354 20.204-6.554c46.336-15.012 88.269-38.789 124.6-70.666l18.166-13.189 18.115 4.403 108.36 35.983 53.033-86.835-85.197-72.499-17.797-12.964 6.595-21.34c5.274-22.231 7.895-46.060 7.895-71.158 0-25.139-2.632-48.957-7.813-70.789l-4.465-21.709 15.524-12.913 85.238-72.499-53.012-86.856z" />
<glyph unicode="&#xe91a;" glyph-name="Ship-Station" d="M873.314 788.487c-99.922 100.116-220.385 150.18-361.349 150.18-140.892 0-261.294-50.063-361.216-150.18-99.983-100.106-149.955-220.703-149.955-361.841s49.961-261.734 149.955-361.83c99.922-100.127 220.324-150.149 361.216-150.149 140.964 0 261.427 50.022 361.349 150.139 99.932 100.096 149.893 220.703 149.893 361.83 0 141.148-49.961 261.745-149.893 361.851zM816.738 121.402c-73.687-73.841-162.12-115.681-265.421-125.563v36.915h-78.633v-36.915c-103.229 9.882-191.662 51.722-265.421 125.563-73.759 73.861-115.538 162.488-125.338 265.841h36.854v78.807h-36.854c9.81 103.363 50.77 191.98 122.911 265.861 72.069 73.82 159.754 115.661 262.922 125.491h4.925v-36.905h78.633v36.905c103.301-9.83 191.734-51.671 265.421-125.491 73.82-73.882 115.538-162.499 125.409-265.861h-36.854v-78.807h36.854c-9.871-103.352-51.589-191.98-125.409-265.841zM271.151 185.382l334.244 147.702 147.517 334.807-334.305-147.692-147.456-334.817zM470.258 468.487c11.489 11.489 25.354 17.234 41.708 17.234 16.425 0 30.362-5.745 41.851-17.234s17.172-25.416 17.172-41.841c0-16.415-5.683-30.351-17.172-41.83-11.489-11.5-25.416-17.244-41.851-17.244-16.364 0-30.218 5.745-41.708 17.244-11.5 11.479-17.244 25.416-17.244 41.83 0 16.425 5.745 30.351 17.244 41.841z" />
<glyph unicode="&#xe91b;" glyph-name="Social" d="M984.946 899.612c-25.928 25.917-57.733 39.055-94.679 39.055h-756.531c-36.936 0-68.741-13.138-94.669-39.055-25.917-25.897-39.066-57.733-39.066-94.679v-756.531c0-36.884 13.138-68.751 39.055-94.669 25.938-25.928 57.743-39.066 94.689-39.066h756.531c36.936 0 68.751 13.138 94.669 39.066 25.928 25.917 39.055 57.795 39.055 94.669v756.531c0 36.946-13.128 68.782-39.055 94.679zM962.909 48.412c0-20.736-6.769-36.997-21.207-51.425-14.367-14.428-30.751-21.146-51.425-21.146h-756.531c-20.736 0-37.059 6.717-51.487 21.146-14.377 14.428-21.094 30.689-21.094 51.425v756.521c0 20.675 6.717 37.059 21.094 51.456 14.438 14.438 30.751 21.125 51.487 21.125h756.531c20.685 0 37.059-6.687 51.425-21.125 14.438-14.408 21.207-30.781 21.207-51.456v-756.521zM825.99 629.777c0 77.978-63.508 141.455-141.394 141.455-77.947 0-141.404-63.478-141.404-141.455 0-12.79 2.243-24.955 5.417-36.7l-109.455-66.284c-25.631 25.446-60.805 41.236-99.748 41.236-77.947 0-141.343-63.386-141.343-141.363s63.396-141.363 141.343-141.363c38.001 0 72.407 15.227 97.853 39.772l110.705-66.99c-2.826-11.11-4.772-22.559-4.772-34.58 0-77.947 63.447-141.343 141.404-141.343 77.875 0 141.394 63.386 141.394 141.343 0 69.458-50.432 127.048-116.47 138.865v128.543c66.038 11.848 116.47 69.437 116.47 138.865zM339.416 346.457c-44.247 0-80.241 36.004-80.241 80.21 0 44.247 36.004 80.241 80.241 80.241s80.241-35.994 80.241-80.241c0-44.206-35.994-80.21-80.241-80.21zM575.786 312.696l-104.745 63.365c6.072 15.759 9.779 32.717 9.779 50.606 0 17.080-3.543 33.198-9.134 48.404l105.513 63.775c18.442-21.647 42.947-37.591 71.168-45.097v-134.154c-28.989-7.721-54.026-24.361-72.581-46.899zM764.837 223.505c0-44.247-36.004-80.22-80.241-80.22-44.308 0-80.302 35.973-80.302 80.22 0 44.237 35.994 80.241 80.302 80.241 44.247 0 80.241-36.004 80.241-80.241zM684.596 549.537c-44.308 0-80.302 36.004-80.302 80.241s35.994 80.241 80.302 80.241c44.237 0 80.241-35.994 80.241-80.241s-35.994-80.241-80.241-80.241z" />
<glyph unicode="&#xe91c;" glyph-name="Store-SEO" d="M57.819 466.757c17.92 18.094 39.649 27.136 65.26 27.136 25.6 0 47.34-9.042 65.249-27.136s26.839-40.059 26.839-65.925c0-25.876-8.929-47.841-26.839-65.925-17.92-18.156-39.649-27.197-65.249-27.197-25.61 0-47.34 9.042-65.26 27.197-17.91 18.084-26.839 40.038-26.839 65.925 0 25.866 8.929 47.831 26.839 65.925zM170.418 766.696c19.62 19.794 43.94 29.747 72.95 29.747s53.268-9.953 72.888-29.747c19.62-19.825 29.43-44.401 29.43-73.677 0-29.338-9.81-53.914-29.43-73.708-19.62-19.825-43.878-29.747-72.888-29.747s-53.33 9.923-72.95 29.747c-19.62 19.794-29.43 44.37-29.43 73.708 0 29.276 9.81 53.862 29.43 73.677zM185.747 166.807c16.21 16.384 35.41 24.535 57.62 24.535 22.139 0 41.349-8.161 57.559-24.535 16.21-16.425 24.32-35.82 24.32-58.204s-8.11-41.8-24.32-58.184c-16.21-16.425-35.41-24.556-57.559-24.556-22.2 0-41.411 8.141-57.62 24.556-16.148 16.384-24.32 35.799-24.32 58.184s8.172 41.789 24.32 58.204zM445.526 902.458c23.839 24.166 52.849 36.209 86.917 36.209 34.181 0 63.14-12.042 87.040-36.209 23.839-24.166 35.82-53.412 35.82-87.89 0-34.54-11.981-63.785-35.82-87.921-23.9-24.166-52.859-36.239-87.040-36.239-34.068 0-63.078 12.063-86.917 36.239-23.972 24.136-35.83 53.391-35.83 87.921 0 34.478 11.858 63.724 35.83 87.89zM481.284 38.807c13.691 13.763 30.72 20.695 51.159 20.695 20.5 0 37.581-6.943 51.2-20.695 13.64-13.844 20.439-31.017 20.439-51.722 0-20.685-6.799-37.939-20.439-51.681-13.619-13.865-30.7-20.736-51.2-20.736-20.439 0-37.468 6.881-51.159 20.736-13.619 13.742-20.49 30.996-20.49 51.681 0 20.705 6.871 37.878 20.49 51.722zM778.121 152.583c11.919 12.022 26.419 18.104 43.52 18.104 17.019 0 31.539-6.083 43.459-18.104 11.981-12.104 17.9-26.778 17.9-43.981 0-17.224-5.919-31.898-17.9-43.94-11.919-12.104-26.44-18.084-43.459-18.084-17.101 0-31.601 5.98-43.52 18.084-11.94 12.042-17.92 26.716-17.92 43.94 0 17.203 5.98 31.887 17.92 43.981zM792.14 722.767c7.7 7.752 17.521 11.633 29.501 11.633 11.919 0 21.719-3.881 29.358-11.633 7.7-7.782 11.52-17.736 11.52-29.747 0-12.073-3.82-21.996-11.52-29.747-7.639-7.752-17.439-11.633-29.358-11.633-11.981 0-21.801 3.871-29.501 11.633-7.619 7.752-11.5 17.674-11.5 29.747 0 12.012 3.881 21.965 11.5 29.747zM906.039 437.030c10.26 10.342 22.2 15.503 35.82 15.503 13.681 0 25.6-5.161 35.82-15.503 10.22-10.332 15.34-22.436 15.34-36.209 0-13.844-5.12-25.876-15.34-36.209s-22.139-15.514-35.82-15.514c-13.619 0-25.559 5.181-35.82 15.514-10.22 10.332-15.34 22.374-15.34 36.209 0 13.773 5.12 25.876 15.34 36.209z" />
<glyph unicode="&#xe91d;" glyph-name="Store" d="M1013.174 662.446l-107.778 199.017c-9.359 17.224-29.318 29.267-48.559 29.267h-689.021c-19.261 0-39.251-12.052-48.61-29.318l-107.768-198.987c-6.738-12.442-11.438-30.137-11.438-43.029 0-0.461 0.082-0.922 0.143-1.372 0.082-0.604 0.164-1.229 0.205-1.853l0.379-5.652h-0.717c0.113-39.302 2.662-128.197 58.349-169.393l2.816-2.079-0.819-3.471c-0.573-2.376-0.84-4.506-0.84-6.533v-409.74h-27.238c-15.268 0-27.689-12.728-27.689-28.375 0-15.606 12.411-28.324 27.689-28.324h953.914c15.278 0 27.699 12.708 27.699 28.324 0 15.636-12.421 28.375-27.699 28.375h-30.137v400.35c0 3.144-0.563 6.277-1.782 9.595l-1.495 4.157 3.738 2.253c66.725 39.978 66.797 140.198 66.797 177.923l0.358 2.396c0.123 0.707 0.256 1.413 0.276 2.14 0.594 13.373-3.85 31.602-10.772 44.33zM856.96 834.040l108.741-200.862h-180.145l-50.167 200.862h121.571zM540.005 834.040h138.201l50.238-200.862h-188.439v200.862zM354.955 834.040h129.671v-200.862h-186.555l56.884 200.862zM468.109 576.511l-0.584-5.837c-9.615-95.162-52.471-95.203-75.49-95.224-23.030 0.020-65.875 0.061-75.501 95.224l-0.584 5.837h152.159zM167.703 834.040h129.599l-56.884-200.862h-181.497l108.782 200.862zM57.447 570.674l-0.584 5.837h152.159l-0.584-5.837c-9.626-95.162-52.471-95.203-75.49-95.224-23.040 0.020-65.906 0.061-75.501 95.224zM614.513 19.322h-499.619v400.862l9.523-0.84c2.54-0.266 5.089-0.543 7.844-0.553h1.372c65.517 0.481 107.174 36.609 123.814 107.358l5.028 21.361 5.028-21.361c16.66-70.749 58.328-106.877 123.865-107.358h1.352c65.947 0.481 107.727 37.060 124.152 108.71l5.028 21.965 5.038-21.965c12.718-55.42 40.92-90.022 83.846-102.832l3.738-1.106v-404.241zM576.307 570.674l-0.604 5.837h152.18l-0.604-5.837c-9.605-95.162-52.461-95.203-75.501-95.224-23.009 0.020-65.844 0.061-75.47 95.224zM900.737 19.322h-230.844v400.524l4.465 0.655c43.245 6.298 74.2 31.274 91.998 74.272l4.762 11.52 4.762-11.52c20.664-49.993 58.963-75.562 113.861-75.972h1.362c0.584 0 1.116 0.082 1.679 0.143 0.901 0.092 1.761 0.195 2.724 0.205l5.243 0.061v-399.889zM965.874 570.674c-9.605-95.162-52.461-95.203-75.501-95.224-22.999 0.020-65.865 0.061-75.48 95.224l-0.604 5.837h152.18l-0.594-5.837zM748.311 263.232c-13.281 0-24.115-9.964-24.115-22.088 0-12.175 10.844-22.098 24.115-22.098 13.24 0 24.105 9.923 24.105 22.098 0 12.134-10.865 22.088-24.105 22.088zM310.748 333.664c-9.574 9.779-27.873 7.117-40.664-5.939l-60.857-62.342c-12.769-13.056-15.391-31.837-5.806-41.606 9.574-9.83 27.884-7.137 40.664 5.949l60.857 62.311c12.769 13.076 15.391 31.806 5.806 41.627zM471.345 329.261l-171.206-175.291c-12.78-13.066-15.391-31.837-5.806-41.606 9.574-9.841 27.873-7.137 40.664 5.939l171.216 175.261c12.78 13.117 15.391 31.837 5.806 41.647-9.585 9.83-27.894 7.158-40.674-5.949zM471.345 163.749l-2.826-2.908c-12.769-13.056-15.37-31.817-5.796-41.616 9.585-9.81 27.873-7.107 40.674 5.949l2.806 2.888c12.78 13.076 15.391 31.796 5.806 41.616-9.574 9.789-27.884 7.127-40.664-5.929z" />
<glyph unicode="&#xe91e;" glyph-name="Support" d="M873.308 787.964c-100.014 99.983-221.583 150.682-361.277 150.682-139.817 0-261.335-50.698-361.349-150.682-99.953-99.983-150.682-221.532-150.682-361.318 0-139.817 50.729-261.356 150.682-361.318 99.963-99.922 221.532-150.641 361.349-150.641 139.745 0 261.263 50.719 361.277 150.641 100.024 100.014 150.692 221.563 150.692 361.318 0 139.725-50.668 261.294-150.692 361.318zM630.292 862.808l16.927-5.499c69.089-22.395 130.57-60.252 182.917-112.548 52.285-52.285 90.092-113.828 112.507-182.856l5.499-16.988h-168.172l-3.564 7.434c-29.481 62.505-76.206 109.199-138.691 138.752l-7.434 3.502v168.202zM743.68 426.646c0-63.396-22.866-118.436-68.045-163.635-45.158-45.138-100.137-68.045-163.615-68.045s-118.579 22.897-163.686 68.045c-45.107 45.097-68.035 100.157-68.035 163.635 0 63.447 22.927 118.487 68.035 163.656 45.23 45.169 100.209 68.065 163.686 68.065 63.345 0 118.446-22.897 163.615-68.065 45.179-45.21 68.045-100.25 68.045-163.656zM455.301 873.15l11.745 1.157c18.985 1.843 33.731 2.775 44.984 2.775 11.182 0 25.856-0.942 44.984-2.775l11.735-1.157v-161.526l-15.493 3.092c-17.49 3.471-31.365 5.181-41.226 5.181-10.004 0-23.808-1.71-41.236-5.181l-15.493-3.092v161.526zM83.958 561.496c20.552 71.066 57.6 133.222 110.019 184.74 52.285 51.323 113.766 88.709 182.794 111.073l16.927 5.499v-168.212l-7.373-3.502c-62.597-29.583-109.261-76.278-138.752-138.721l-3.43-7.465h-164.936l4.751 16.589zM64.41 381.61c-1.874 18.299-2.806 33.464-2.806 45.036 0 11.561 0.932 26.716 2.806 45.076l1.188 11.653h157.932l-2.181-14.838c-1.69-11.93-2.56-26.020-2.56-41.892 0-10.179 1.751-24.013 5.181-41.155l3.195-15.565h-161.577l-1.178 11.684zM393.697-9.476l-16.927 5.499c-69.151 22.415-130.693 60.242-182.856 112.497-52.285 52.204-90.081 113.705-112.579 182.897l-5.499 16.957h168.305l3.43-7.444c29.553-62.536 76.155-109.199 138.752-138.721l7.373-3.502v-168.182zM568.75-19.798l-11.684-1.178c-18.309-1.884-33.546-2.816-45.036-2.816-11.622 0-26.737 0.942-45.107 2.816l-11.622 1.178v161.546l15.493-3.144c17.183-3.461 31.048-5.202 41.236-5.202 10.117 0 23.992 1.741 41.175 5.202l15.555 3.144v-161.546zM942.653 291.426c-22.415-69.1-60.221-130.601-112.507-182.897-52.234-52.265-113.756-90.081-182.917-112.497l-16.927-5.499v168.192l7.434 3.502c62.484 29.501 109.138 76.165 138.691 138.721l3.564 7.444h168.182l-5.519-16.968zM958.464 369.926h-161.495l3.062 15.524c3.502 17.398 5.253 31.273 5.253 41.196 0 9.912-1.751 23.777-5.253 41.236l-3.062 15.493h161.495l1.188-11.715c1.874-19.087 2.806-33.833 2.806-45.015 0-11.233-0.942-25.917-2.806-44.995l-1.188-11.725z" />
<glyph unicode="&#xe91f;" glyph-name="Tools" d="M1012.794 660.858c-6.748 23.552-23.869 40.172-47.237 45.67-22.426 5.181-44.605-1.556-60.856-17.93l-158.711-156.519-110.653 17.9-17.94 110.725 156.458 158.619c16.753 16.865 23.122 38.523 18.002 61.071-5.315 23.091-21.934 40.274-46.868 47.432-61.041 15.247-123.965 14.397-186.451-2.468-62.73-16.937-117.719-48.773-163.585-94.566-49.244-49.326-81.981-108.718-97.229-176.672-13.558-59.894-12.37-119.255 3.246-176.764l-246.365-248.628c-36.178-36.219-54.548-80.2-54.548-130.877 0-50.637 17.992-94.321 53.361-129.823 35.43-35.359 79.104-53.361 129.72-53.361l0.246 0.061c50.555-0.061 94.474 18.319 130.652 54.436l246.498 246.621c58.86-15.821 118.6-16.876 177.829-3.482 66.98 15.278 126.587 47.882 178.208 97.802 45.476 47.145 77.097 102.4 94.034 164.077 16.947 61.87 17.818 124.221 2.191 186.676zM938.503 493.965c-13.558-49.521-39.045-93.911-74.865-131.092-40.684-39.301-88.412-65.444-141.774-77.599-53.617-12.237-107.1-9.503-160.155 8.182l-21.934 7.322-278.539-278.672c-21.996-21.965-47.493-32.604-77.855-32.604h-0.123c-30.618 0-55.736 10.26-76.923 31.457-21.176 21.176-31.427 46.356-31.427 76.882s10.629 55.982 32.625 78.080l278.672 281.079-7.496 21.965c-17.746 51.988-20.367 103.885-8.059 158.772 12.308 54.61 37.55 100.475 77.169 140.156 36.987 36.925 79.606 61.604 130.222 75.295 26.491 7.127 53.115 10.752 79.104 10.752 17.121 0 34.488-1.597 51.18-4.628l-170.784-173.047 32.614-201.483 201.391-32.614 173.077 170.763c7.752-42.609 5.693-85.883-6.124-128.963z" />
<glyph unicode="&#xe920;" glyph-name="Vendor-store" d="M164.845 139.929h435.484v250.539h-435.484v-250.539zM334.601 177.361v175.635h104.182v-175.635h-104.182zM562.877 177.361h-86.622v175.635h86.622v-175.635zM202.315 352.996h94.815v-175.635h-94.815v175.635zM1000.807 595.627c-2.921 6.314-6.125 13.331-9.709 21.296l-70.163 154.434-1.574 2.787c-17.636 25.79-39.348 31.213-54.461 31.213l-707.109 0.587c-23.913 0-50.176-24.216-56.889-39.86l-67.887-149.41c-2.958-6.808-5.879-13.255-8.685-19.437-13.577-30.018-24.329-53.798-24.329-77.767l0.189-2.617c7.927-56.225 48.734-95.554 103.766-102.95v-329.025c0-20.669 16.801-37.49 37.471-37.49h764.453c20.651 0 37.471 16.821 37.471 37.49v335.189c43.008 7.888 73.785 43.084 80.479 94.189l0.171 2.446c0 28.502-8.742 47.483-23.192 78.924zM501.987 537.96c0-45.303-48.811-82.147-108.847-82.147-52.509 0-95.175 33.849-98.778 76.44l48.47 236.032 159.212-0.132v-230.191h-0.057zM539.439 768.152l150.926-0.132 48.678-235.406c-2.901-42.705-43.33-76.818-93.089-76.818-58.729 0-106.533 36.845-106.533 82.185l0.019 230.173zM37.49 520.724c0.455 15.72 9.558 35.821 20.992 61.098 2.844 6.296 5.841 12.894 8.76 19.588l67.944 149.522c2.446 5.481 16.876 17.237 22.603 17.56l146.773-0.132-47.332-230.342h-1.099c0-2.883-0.246-5.708-0.664-8.514l-0.436-2.162h0.019c-8.021-43.558-64.285-77.445-132.38-77.445-45.89-0.057-78.431 27.060-85.182 70.827zM683.462 86.036v266.96h147.266v-266.96h-147.266zM868.161 84.898v305.569h-222.189v-305.55h-504.546v328.267c57.496 4.626 106.458 30.302 132.361 66.256 23.513-36.409 68.133-61.080 119.315-61.080 54.652 0 102.324 24.633 127.45 61.041 24.728-36.409 71.623-61.041 125.402-61.041 49.721 0 93.051 25.24 115.276 62.35 28.104-34.095 81.18-57.837 144.611-61.781v-334.032h-37.679zM924.595 455.813c-79.948 0-147.494 37.376-147.494 81.598h-0.758l-47.692 230.589 136.248-0.114c6.030 0 13.995-1.593 22.661-13.634l69.405-152.746c3.565-7.945 6.808-15.076 9.823-21.522 13.255-28.919 19.476-42.439 19.74-62.047-5.538-38.93-28.634-62.122-61.933-62.122z" />
<glyph unicode="&#xe921;" glyph-name="Verification" d="M873.38 788.016c-100.495 100.465-221 150.651-361.38 150.651-140.442 0-260.936-50.186-361.38-150.651-100.372-100.475-150.62-220.908-150.62-361.349s50.248-260.884 150.62-361.308c100.444-100.444 220.938-150.692 361.38-150.692 140.38 0 260.884 50.248 361.38 150.692 100.372 100.424 150.62 220.867 150.62 361.308s-50.248 260.874-150.62 361.349zM813.384 125.355c-83.63-83.569-184.003-125.379-301.384-125.379-117.371 0-217.754 41.81-301.373 125.379-83.569 83.558-125.317 184.003-125.317 301.312s41.748 217.784 125.317 301.312c83.62 83.558 184.003 125.379 301.373 125.379 117.381 0 217.754-41.81 301.384-125.379 83.497-83.538 125.235-184.003 125.235-301.312s-41.738-217.754-125.235-301.312zM752.876 632.86c-7.127 8.151-14.633 6.748-21.32 0.092l-295.557-295.475-143.565 143.688c-3.502 3.441-6.943 4.997-11.192 4.997-3.871 0-6.748-1.249-9.38-4.25l-44.626-43.694c-1.751-1.618-3.748-4.495-3.748-10.373 0-6.062 1.997-8.878 3.871-10.691l198.001-196.884c6.738-7.619 15.37-6.871 20.623-0.737l350.618 349.43c1.884 1.884 3.881 4.751 3.881 10.691s-1.997 8.776-3.881 10.691l-43.725 42.516z" />
<glyph unicode="&#xe922;" glyph-name="Visit" d="M754.496-4.46h-673.608v673.67h428.306l80.812 80.843h-589.991v-835.386h835.355v590.053l-80.874-80.812v-428.367zM612.993 938.667v-80.843h271.936l-587.421-584.411 61.243-61.202 584.349 587.39v-271.864h80.884v410.929h-410.991z" />
<glyph unicode="&#xe923;" glyph-name="Withdraw" d="M511.999 531.469l-24.003-19.395-128-124.252 48.005-46.602 71.997 71.834v-203.827h64v203.827l71.997-71.834 48.005 46.602-128 124.252-24.003 19.395zM955.995 409.193c-2.673 54.364-24.003 100.936-64 139.745-39.997 38.83-88.003 59.525-144.005 62.136-19.999 46.582-50.995 84.449-93 113.551-41.994 29.153-89.661 43.704-142.991 43.704-65.331 0-121.334-21.361-167.997-64.082-46.664-42.691-74.004-95.119-82.002-157.225-29.338-5.222-54.661-16.527-76.001-33.966-21.33-17.48-36.669-39.803-45.998-67-41.339-10.363-74.998-31.724-100.997-64.051-25.999-32.399-39.004-69.284-39.004-110.643 0-51.804 18.668-95.795 56.003-132.024 37.335-36.25 82.668-54.333 135.997-54.333h640c53.33 0 98.673 18.084 135.997 54.344 37.335 36.219 56.003 80.22 56.003 132.014 0 53.023-22.671 99-68.004 137.83zM923.002 183.022c-24.668-23.962-54.999-35.922-91.003-35.922h-640c-36.004 0-66.335 11.96-91.003 35.922-24.668 23.921-36.997 53.402-36.997 88.34 0 31.058 10.004 57.856 30.003 80.558 19.999 22.641 44.667 35.901 74.004 39.803l21.996 3.881 4.004 21.34c5.335 20.695 16.66 37.857 33.997 51.436 17.336 13.588 37.335 20.388 59.996 20.388h32v31.058c0 51.753 18.668 95.754 56.003 132.004 37.335 36.229 82.668 54.364 135.997 54.364 44.001 0 82.668-12.308 115.999-36.864 33.331-24.637 56.003-56.31 68.004-95.14l7.997-23.306h32c44.001 0 81.674-15.217 112.998-45.609 31.334-30.444 47.002-66.97 47.002-109.67v-15.544l12.001-9.697c34.673-24.637 51.999-57.641 51.999-99 0-34.939-12.329-64.42-36.997-88.34z" />
<glyph unicode="&#xe924;" glyph-name="1" d="M512.081 69.706c-238.295 0-440.339 107.837-448.695 237.384h-63.386v-198.461h63.099v56.044l14.182-13.722c93.051-90.378 255.61-144.343 434.789-144.343 282.521 0 504.831 131.277 511.917 300.482h-63.222c-8.346-129.546-210.401-237.384-448.685-237.384zM960.899 545.568v-56.023l-14.182 13.691c-31.058 30.188-70.359 55.869-114.985 77.22v120.955l-18.176 7.25-290.672 130.816-10.885 7.25-10.885-7.25-290.661-130.806-18.176-7.25v-119.921c-114.545-54.538-188.242-138.271-192.276-234.383h63.222c3.994 62.239 53.074 119.265 129.055 161.946v-174.592l14.551-9.144 290.672-161.659 14.5-7.229 14.551 7.24 290.631 161.659 14.551 9.144v174.459c75.858-42.639 124.846-99.625 128.891-161.823h63.375v198.451h-63.099zM482.938 239.996l-232.54 127.16v268.86l232.54-116.265v-279.756zM511.999 570.615l-223.447 112.62 223.447 98.12 223.447-98.12-223.447-112.62zM773.599 367.156l-232.54-127.16v279.746l232.54 116.265v-268.85z" />
<glyph unicode="&#xe925;" glyph-name="2" d="M922.318 893.632h-820.677c-56.053 0-101.641-47.667-101.641-106.331v-721.319c0-58.562 45.588-106.28 101.641-106.28h820.687c56.104 0 101.672 47.718 101.672 106.28v721.319c-0.010 58.664-45.568 106.331-101.682 106.331zM689.821 808.303h101.641l-73.635-197.548h-101.641l73.635 197.548zM497.137 808.303h101.641l-73.635-197.548h-101.641l73.635 197.548zM304.442 808.303h101.641l-73.635-197.548h-101.641l73.635 197.548zM85.329 787.301c0 11.387 7.465 21.002 16.302 21.002h111.748l-73.635-197.548h-54.414v176.546zM938.661 65.971c0-11.336-7.455-20.941-16.343-20.941h-820.677c-8.837 0-16.302 9.605-16.302 20.941v459.444h853.322v-459.444zM938.661 610.745h-129.781l73.635 197.548h39.803c8.888 0 16.343-9.615 16.343-21.002v-176.546zM401.076 481.076v-395.782l299.773 197.999-299.773 197.784zM475.029 343.688l91.606-60.395-91.606-60.538v120.933z" />
<glyph unicode="&#xe926;" glyph-name="3" d="M512 938.667c-282.317 0-512-229.673-512-512s229.683-512 512-512 512 229.683 512 512c0 282.327-229.683 512-512 512zM512-15.517c-243.825 0-442.184 198.359-442.184 442.184s198.359 442.184 442.184 442.184 442.184-198.359 442.184-442.184c0-243.825-198.359-442.184-442.184-442.184zM365.087 668.126h-69.816v-482.898h69.816v240.804l363.643-317.686v636.641l-363.643-317.676v240.814zM658.913 591.265v-329.175l-188.385 164.577 188.385 164.598z" />
<glyph unicode="&#xe927;" glyph-name="4" d="M512 938.667c-282.359 0-511.985-229.676-511.985-511.985 0-282.277 229.625-512.016 511.985-512.016 282.257 0 511.985 229.738 511.985 512.016 0 282.308-229.727 511.985-511.985 511.985zM512-15.519c-243.818 0-442.171 198.353-442.171 442.201 0 243.807 198.353 442.171 442.171 442.171s442.171-198.363 442.171-442.171c0-243.848-198.353-442.201-442.171-442.201zM376.365 108.402l364.359 318.28-364.359 318.3v-636.581zM446.179 591.265l188.4-164.583-188.4-164.562v329.145z" />
<glyph unicode="&#xe928;" glyph-name="5" d="M0 426.667c0-282.327 229.683-512 512-512s512 229.683 512 512c0 282.317-229.683 512-512 512s-512-229.673-512-512zM69.816 426.667c0 243.825 198.359 442.184 442.184 442.184s442.184-198.359 442.184-442.184c0-243.825-198.359-442.184-442.184-442.184s-442.184 198.359-442.184 442.184zM658.913 427.312l-363.643 317.676v-636.641l363.643 317.686v-240.804h69.806v482.898h-69.806v-240.814zM553.482 426.667l-188.396-164.577v329.175l188.396-164.598z" />
<glyph unicode="&#xe929;" glyph-name="Address" d="M511.976 938.666c-217.89 0-395.144-175.258-395.144-390.689 0-5.649 0.103-11.264 0.358-17.237l0.376-5.904c0-5.854 1.57-145.134 137.693-331.281 127.044-173.67 206.523-255.812 235.98-273.357 2.868-1.689 10.547-5.53 20.821-5.53 7.423 0 14.626 1.997 20.343 5.631 29.338 17.442 108.732 99.482 235.844 273.272 130.646 178.62 137.353 314.982 137.693 329.745l0.87 9.591c0.29 5.018 0.358 10.036 0.358 15.087-0.069 215.415-177.339 390.673-395.195 390.673zM511.959 882.687c185.616 0 336.64-150.17 336.64-334.728 0-4.045-0.069-8.056-0.154-10.922l-0.989-12.066c-0.17-5.307-4.591-131.738-127.147-299.333-127.437-174.182-190.106-234.035-208.623-249.907-33.706 28.911-105.523 109.124-208.452 249.855-123.102 168.294-127.078 295.322-127.181 300.765l-0.376 7.065c-0.239 4.83-0.342 9.642-0.342 14.524 0 184.576 151.006 334.746 336.623 334.746zM511.959 376.933c54.391 0 105.609 20.292 144.128 57.139 38.621 36.864 59.852 85.743 59.852 137.711 0 107.417-91.528 194.816-203.981 194.816-112.486 0-204.015-87.398-204.015-194.816s91.528-194.849 204.015-194.849zM511.959 727.569c43.554 0 84.497-16.247 115.37-45.704 30.856-29.475 47.855-68.557 47.82-110.080 0-85.897-73.216-155.767-163.226-155.767-89.992 0-163.208 69.87-163.208 155.767 0.017 85.897 73.233 155.785 163.242 155.785z" />
<glyph unicode="&#xe92a;" glyph-name="arrow-down" d="M512.951-12.19c9.962 0.073 19.397 3.935 26.2 10.474l276.29 265.947c7.036 6.788 10.957 15.799 10.957 25.337 0 9.611-3.92 18.608-10.957 25.395-14.497 13.956-38.151 13.956-52.59 0l-213.051-204.946v719.711c0 19.749-16.457 35.796-36.908 35.796-20.495 0-36.937-16.033-36.937-35.796v-719.726l-212.948 204.946c-14.512 13.956-38.151 13.956-52.56 0-6.978-6.729-10.898-15.784-10.898-25.395 0-9.552 3.92-18.549 10.898-25.322l276.319-266.006c7.256-6.744 16.545-10.416 26.185-10.416z" />
<glyph unicode="&#xe92b;" glyph-name="arrow-left" d="M74.108 426.682c0.073-9.962 3.935-19.397 10.474-26.2l265.947-276.29c6.788-7.036 15.799-10.957 25.337-10.957 9.611 0 18.608 3.92 25.395 10.957 13.956 14.497 13.956 38.151 0 52.59l-204.946 213.051h719.696c19.763 0 35.796 16.457 35.796 36.908 0 20.495-16.033 36.937-35.796 36.937h-719.726l204.976 212.963c13.956 14.512 13.956 38.151 0 52.56-6.729 6.978-15.784 10.898-25.395 10.898-9.552 0-18.549-3.92-25.322-10.898l-266.021-276.319c-6.744-7.27-10.416-16.56-10.416-26.2z" />
<glyph unicode="&#xe92c;" glyph-name="arrow-right" d="M933.625 452.881l-265.991 276.319c-6.788 6.978-15.784 10.898-25.337 10.898-9.611 0-18.666-3.92-25.395-10.898-13.956-14.409-13.956-38.049 0-52.56l204.961-212.948h-719.726c-19.778 0-35.811-16.443-35.811-36.937 0-20.451 16.048-36.923 35.811-36.923h719.696l-204.946-213.051c-13.956-14.438-13.956-38.078 0-52.59 6.788-7.036 15.784-10.957 25.395-10.957 9.552 0 18.564 3.92 25.337 10.957l265.947 276.29c6.554 6.802 10.416 16.252 10.474 26.2 0 9.64-3.672 18.929-10.416 26.2z" />
<glyph unicode="&#xe92d;" glyph-name="arrow-up" d="M486.751 855.109l-276.319-266.006c-6.978-6.788-10.898-15.77-10.898-25.322 0-9.611 3.92-18.666 10.898-25.395 14.409-13.956 38.049-13.956 52.56 0l212.948 204.961v-719.726c0-19.778 16.443-35.796 36.937-35.796 20.451 0 36.908 16.048 36.908 35.796v719.696l213.051-204.946c14.424-13.956 38.093-13.956 52.59 0 7.036 6.788 10.957 15.784 10.957 25.395 0 9.538-3.92 18.564-10.957 25.337l-276.275 265.947c-6.788 6.539-16.238 10.401-26.2 10.474-9.64 0-18.929-3.672-26.2-10.416z" />
<glyph unicode="&#xe92e;" glyph-name="comment" d="M1023.379 13.854c-1.297 6.179-3.669 10.889-7.305 14.506-4.506 4.454-13.193 14.387-38.264 49.289-28.536 38.724-49.597 76.801-62.669 113.136l-3.908 11.025 8.038 8.568c69.394 73.916 104.671 157.903 104.671 249.654 0 74.804-22.869 144.335-67.909 206.748-45.671 63.13-108.136 114.143-185.704 151.469-77.961 37.462-164.9 56.508-258.375 56.508-93.44 0-180.345-19.046-258.324-56.508-77.569-37.342-140.102-88.337-185.739-151.469-45.040-62.43-67.891-131.961-67.891-206.765 0-74.736 22.853-144.335 67.909-206.697 45.722-63.284 108.221-114.246 185.739-151.519 78.046-37.53 164.951-56.492 258.324-56.492 62.942 0 126.005 9.575 187.411 28.399l8.875 2.748 7.56-5.445c86.136-61.287 179.441-92.434 277.371-92.434 6.007 0 11.264 1.638 16.401 5.137 5.359 3.635 9.233 8.192 11.998 14.063 2.492 5.206 2.987 10.325 1.792 16.077zM875.171 58.194c-43.23 14.455-84.737 36.404-123.53 65.298l-33.127 21.641-39.203-12.016c-129.538-41.080-273.667-32.205-390.797 20.651-68.95 31.13-124.452 74.173-164.985 127.882-41.046 54.528-61.902 114.587-61.902 178.365s20.788 123.837 61.902 178.365c40.534 53.778 96.018 96.803 165.002 127.882 136.961 61.765 309.9 61.765 446.861 0 69.036-31.079 124.502-74.104 165.036-127.882 41.062-54.528 61.902-114.587 61.902-178.365 0-75.674-29.697-145.341-88.236-207.14l-33.469-37.086 16.896-47.582c10.309-25.907 23.825-53.915 40.073-82.433l24.594-43.281-47.019 15.701z" />
<glyph unicode="&#xe930;" glyph-name="envelop" d="M956.214 775.967h-886.354c-39.296 0-69.86-30.564-69.86-69.86v-558.883c0-39.296 30.564-69.86 69.86-69.86h884.17c39.296 0 69.86 30.564 69.86 69.86v558.883c2.183 39.296-28.381 69.86-67.678 69.86zM964.946 644.98c-205.216-91.692-430.078-185.567-451.909-187.75-21.832 0-220.498 82.96-451.909 187.75v61.128c0 6.55 4.367 10.915 10.915 10.915h884.17c6.55 0 10.915-4.367 10.915-10.915v-61.128zM61.128 579.485c157.186-72.043 412.613-183.384 451.909-183.384 32.747 0 261.977 98.242 451.909 183.384v-432.262c0-6.55-4.367-10.915-10.915-10.915h-884.17c-6.55 0-10.915 4.367-10.915 10.915v432.262z" />
<glyph unicode="&#xe931;" glyph-name="Logout" d="M153.105 399.207h525.414v63.011h-525.398l103.629 105.455c12.186 12.408 12.032 32.359-0.307 44.578-12.356 12.186-32.222 12.083-44.408-0.307l-178.039-181.248 178.074-181.265c6.144-6.246 14.251-9.387 22.357-9.387 7.971 0 15.94 3.038 22.033 9.063 12.356 12.237 12.493 32.171 0.324 44.561l-103.681 105.54zM912.128 938.667h-495.462c-42.923 0-77.841-36.045-77.841-80.385v-294.212h62.771v294.212c0 9.591 6.759 17.374 15.070 17.374h495.462c8.311 0 15.070-7.799 15.070-17.374v-863.266c0-9.575-6.759-17.34-15.070-17.34h-495.462c-8.294 0-15.070 7.765-15.070 17.34v294.23h-62.771v-294.23c0-44.322 34.918-80.35 77.841-80.35h495.462c42.939 0 77.875 36.028 77.875 80.35v863.266c0 44.339-34.936 80.385-77.875 80.385z" />
<glyph unicode="&#xe932;" glyph-name="Newsletter" d="M953.721 775.249h-883.442c-38.741 0-70.279-31.3-70.279-69.717v-557.764c0-38.434 31.539-69.682 70.279-69.682h883.442c38.757 0 70.279 31.249 70.279 69.682v557.747c0 38.434-31.539 69.733-70.279 69.733zM963.739 644.777c-205.087-91.203-428.964-185.989-451.082-188.26-23.056 1.177-221.18 83.557-452.413 188.106v60.893c0 5.512 4.506 9.984 10.036 9.984h883.442c5.512 0 10.018-4.472 10.018-9.984v-60.739zM60.243 579.020c157.642-70.963 411.283-182.235 451.747-182.235 32.938 0 260.604 97.756 451.747 182.526v-431.558c0-5.427-4.506-9.915-10.018-9.915h-883.442c-5.53 0-10.036 4.488-10.036 9.915v431.268z" />
<glyph unicode="&#xe933;" glyph-name="Order" d="M818.272 272.941v552.388c0 32.716-26.64 59.323-59.391 59.323h-96.323v-1.109c-13.551 32.409-44.492 55.124-80.433 55.124h-232.153c-35.533 0-66.133-22.22-79.922-54.015h-96.869c-32.75 0-59.374-26.607-59.374-59.323v-747.627c0-32.699 26.64-59.34 59.374-59.34h371.381c32.528-61.558 97.21-103.695 171.637-103.695 106.99 0 193.994 86.936 193.994 193.788-0.017 69.444-36.864 130.285-91.919 164.486zM294.727 846.917c0 32.665 24.781 59.22 55.244 59.22h232.153c30.446 0 55.227-26.573 55.227-59.22v-25.77h-342.624v25.77zM173.163 72.035c-3.141 0-5.7 2.526-5.7 5.666v747.627c0 3.141 2.56 5.683 5.7 5.683h89.019v-16.162c0-14.455 11.554-26.197 25.77-26.197h356.159c14.13 0 25.736 11.707 25.788 26.197v16.162h88.984c3.157 0 5.683-2.56 5.683-5.683v-529.399c-15.479 3.993-31.641 6.331-48.383 6.331-52.479 0-100.077-20.991-135.029-54.936v4.506h-165.68v-32.495h141.839c-22.050-31.436-35.123-69.631-35.123-110.863 0-12.459 1.28-24.627 3.55-36.437h-352.575zM716.181-44.699c-84.547 0-153.307 68.692-153.307 153.17s68.761 153.17 153.307 153.17 153.307-68.692 153.307-153.17-68.761-153.17-153.307-153.17zM687.987 677.926h-272.516v-32.495h272.533v32.495zM687.987 535.882h-272.516v-32.511h272.533v32.511zM687.987 393.873h-272.516v-32.495h272.533v32.495zM294.829 634.816l-39.884 35.754-21.743-24.183 65.177-58.435 88.319 107.313-25.139 20.651-66.73-81.099zM294.829 496.834l-39.884 35.754-21.743-24.183 65.177-58.419 88.319 107.313-25.139 20.633-66.73-81.099zM294.829 358.904l-39.884 35.737-21.743-24.2 65.177-58.401 88.319 107.297-25.139 20.651-66.73-81.082zM294.829 220.905l-39.884 35.737-21.743-24.2 65.177-58.401 88.319 107.297-25.139 20.633-66.73-81.066zM698.278 71.198l-55.039 49.373-21.709-24.2 80.314-72.037 110.675 134.534-25.121 20.633-89.12-108.303z" />
<glyph unicode="&#xe934;" glyph-name="quote" d="M193.583 646.95c-49.527-61.916-74.307-124.499-74.307-188.054 0-26.709 3.26-49.851 9.763-69.409 36.522 29.013 77.567 43.69 122.554 43.69 59.323 0 108.849-19.233 149.911-57.361s61.269-89.616 61.269-154.143c0-39.765-9.763-75.621-28.672-107.876-19.558-32.273-45.636-57.685-77.567-75.929-32.597-18.244-67.156-27.374-104.941-27.374-85.384 0-149.911 34.884-195.547 104.941-37.153 58.009-56.046 130.677-56.046 217.699 0 110.812 28.023 209.882 84.735 297.57 56.046 87.67 141.447 158.376 255.518 212.153l30.634-59.647c-69.102-29.030-127.742-74.324-177.303-136.259zM754.811 646.95c-49.527-61.916-74.307-124.499-74.307-188.054 0-26.709 3.226-49.851 9.763-69.409 37.802 29.013 78.198 43.69 122.537 43.69 60.637 0 110.795-19.233 151.226-57.361 39.765-38.126 59.972-89.616 59.972-154.143 0-59.972-20.206-110.487-61.269-150.559-40.43-40.413-90.605-60.637-149.928-60.637-84.735 0-149.895 34.884-194.898 104.941-37.802 58.009-56.694 130.677-56.694 217.699 0 110.812 28.040 209.882 84.735 297.57 56.694 87.67 141.429 158.376 255.501 212.153l30.669-59.647c-68.471-29.013-127.776-74.307-177.303-136.241z" />
<glyph unicode="&#xe935;" glyph-name="sale" d="M364.556 469.649c-37.669 0-59.509-31.152-59.509-69.495v-26.050c0-38.359 24.685-69.512 62.305-69.512 18.153 0 29.486 7.308 42.384 20.409 12.933 13.151 14.262 30.596 14.262 49.103v26.050c-0.017 38.342-21.874 69.495-59.442 69.495zM397.545 374.105c0-10.827-2.34-20.965-9.885-28.576-7.494-7.779-11.635-12.074-22.228-12.074-21.975 0-33.947 18.202-33.947 40.649v25.966c0 22.379 11.13 40.7 33.072 40.7 21.908 0 32.987-18.321 32.987-40.7v-25.966zM582.487 469.649c-37.585 0-66.026-31.152-66.026-69.495v-26.050c0-38.359 28.424-69.512 66.026-69.512 37.568 0 66.060 31.152 66.060 69.512v26.050c-0.017 38.342-28.492 69.495-66.060 69.495zM622.143 374.105c0-22.447-17.698-40.649-39.656-40.649s-39.639 18.202-39.639 40.649v26.050c0 22.295 17.681 40.616 39.639 40.616 21.975 0 39.656-18.253 39.656-40.616v-26.050zM484.080 590.25l28.122-3.384-43.798-383.037-28.104 3.384 43.781 383.037zM973.641 693.288c55.738 53.582 58.297 143.671 5.675 200.806-26.235 28.358-63.197 44.573-101.27 44.573-35.665 0-69.495-13.741-95.376-38.679l-108.494-104.47-1.987-0.101-258.749-12.579-406.612-410.552 443.978-457.618 406.68 410.738 15.492 273.55 100.664 94.332zM798.667 352.584l-1.465-1.532-345.975-349.444-359.227 370.173 347.339 350.741 177.417 8.638-3.704-8.134c-8.049-17.613-12.427-36.457-12.949-55.939-1.077-37.955 12.394-74.058 37.955-101.708 24.4-26.1 58.061-42.030 93.036-44.017l0.589 32.634c-26.521 1.819-51.966 13.942-70.521 33.779-19.685 21.251-30.007 49.069-29.216 78.403 0.607 23.844 8.706 46.324 23.473 65.033l1.499 1.903 163.676 7.914-21.924-388.443zM723.009 797.876l81.467 78.368c19.988 19.197 46.088 29.806 73.519 29.806 29.502 0 57.926-12.529 78.083-34.351 40.633-44 38.713-113.31-4.26-154.582l-76.28-71.532 9.059 160.14-161.588-7.847z" />
<glyph unicode="&#xe936;" glyph-name="wishlist-2" d="M1003.877 713.113c-38.895 90.367-134.518 156.91-227.429 158.138l-6.365 0.051c-134.757 0-218.077-56.030-258.149-92.689-40.106 36.676-123.442 92.689-258.2 92.689l-6.365-0.051c-92.842-1.228-188.483-67.771-227.395-158.156-24.73-57.446-48.265-172.884 72.208-300.526 137.591-145.782 316.005-329.863 374.628-390.363 11.161-11.537 17.681-18.244 18.875-19.473l23.193-20.701 21.213 18.756c3.038 2.696 238.403 240.195 401.56 411.766 120.78 126.976 97.109 242.789 72.226 300.56zM888.832 452.165c-126.224-136.925-309.997-328.139-375.823-388.418-17.204 17.869-46.012 46.899-81.646 82.824-82.005 82.637-205.925 207.529-296.327 305.611-72.038 78.165-93.883 162.644-61.474 237.874 30.242 70.28 103.68 121.958 174.557 122.913l5.718 0.034c159.095-0.017 232.037-90.385 235.024-94.19l23.091-29.935 23.108 29.918c0.734 0.939 75.588 94.208 235.006 94.208l5.683-0.034c70.928-0.955 144.383-52.65 174.626-122.913 32.341-75.246 10.479-159.726-61.542-237.891z" />
<glyph unicode="&#xe937;" glyph-name="Zoom" d="M270.725 878.927v59.74h-270.725v-270.725h59.74v168.622l171.715-171.715 42.363 42.363-171.612 171.715zM792.525 664.849l171.715 171.715v-168.622h59.74v270.725h-270.725v-59.74h168.52l-171.612-171.715zM964.26 185.382v-168.612l-171.715 171.715-42.363-42.353 171.612-171.725h-168.509v-59.74h270.715v270.715zM231.455 188.485l-171.715-171.715v168.612h-59.74v-270.715h270.725v59.74h-168.52l171.612 171.725z" />
<glyph unicode="&#xe938;" glyph-name="Call" d="M942.627 139.351l-156.62 209.989c-21.394 28.67-61.636 34.34-89.892 12.68l-49.6-38.16c-28.24-21.643-68.515-16.004-89.875 12.665l-14.964 20.105-88.172 118.247c-21.427 28.719-15.84 69.539 12.433 91.264l49.6 38.093c28.272 21.708 33.826 62.579 12.433 91.296l-156.572 209.941c-21.36 28.768-61.636 34.406-89.908 12.698l-57.569-44.276c-141.328-108.526-172.228-339.1-65.29-482.591l238.675-320.085c106.92-143.477 333.941-175.882 475.235-67.324l57.585 44.227c28.255 21.674 33.86 62.545 12.498 91.231zM833.838 55.823c-112.624-86.52-299.915-59.918-385.343 54.71l-238.692 320.168c-85.428 114.643-59.768 304.76 52.857 391.278l57.569 44.193 156.572-210.007-49.567-38.109c-56.446-43.333-67.621-125.191-24.899-182.511l103.085-138.301c42.754-57.306 123.389-68.647 179.85-25.247l49.567 38.060 156.554-210.056-57.553-44.177z" />
<glyph unicode="&#xe939;" glyph-name="call-2" d="M927.453 137.818l-156.364 210.034c-21.379 28.753-61.577 34.347-89.77 12.652l-49.528-38.085c-28.238-21.695-68.434-16.016-89.77 12.652l-102.983 138.364c-21.408 28.697-15.814 69.499 12.407 91.236l49.514 38.113c28.238 21.709 33.786 62.584 12.407 91.236l-156.364 209.991c-21.321 28.697-61.534 34.39-89.77 12.622l-57.48-44.194c-141.141-108.531-172.035-339.14-65.229-482.624l238.401-320.105c106.749-143.469 333.475-175.861 474.601-67.37l57.552 44.282c28.165 21.725 33.729 62.512 12.378 91.193zM818.835 54.287c-112.471-86.45-299.502-59.837-384.846 54.777l-238.343 320.134c-85.343 114.613-59.707 304.778 52.764 391.286l57.507 44.252 156.364-210.048-49.528-38.070c-56.358-43.333-67.515-125.238-24.858-182.501l102.998-138.394c42.657-57.235 123.225-68.564 179.583-25.217l49.501 38.099 156.335-210.121-57.48-44.194z" />
<glyph unicode="&#xe93a;" glyph-name="Cart" d="M914.354 708.556h-147.867c-3.379 127.044-115.729 230.111-251.291 230.111-135.526 0-247.876-103.067-251.272-230.111h-154.743c-46.387 0-69.922-24.918-69.922-74.052v-541.729c0-93.218 81.306-178.108 170.583-178.108h629.011c94.754 0 145.887 91.768 145.887 178.108v541.729c0 33.775-12.202 74.052-70.383 74.052zM344.974 708.556c3.515 79.121 84.155 150.767 170.258 150.767s166.741-71.647 170.309-150.767h-340.566zM301.727 461.993c23.314 0 43.743 18.586 43.743 39.782v120.968h333.431v-120.968c0-21.197 20.48-39.782 43.827-39.782 23.279 0 43.674 18.586 43.674 39.782v120.968h147.627v-529.921c0-44.442-28.757-92.416-75.179-92.416h-629.011c-48.538 0-99.891 47.496-99.891 92.416v529.921h148.002v-120.968c0.018-21.214 20.463-39.782 43.776-39.782z" />
<glyph unicode="&#xe93b;" glyph-name="category" d="M240.933 785.030v-119.355h783.067v119.355h-783.067zM240.933 366.917h783.067v119.486h-783.067v-119.486zM240.933 68.304h783.067v119.398h-783.067v-119.398zM0 665.676h120.466v119.355h-120.466v-119.355zM0 366.917h120.466v119.486h-120.466v-119.486zM0 68.304h120.466v119.398h-120.466v-119.398z" />
<glyph unicode="&#xe93c;" glyph-name="category-1" d="M147.69 726.699h876.31v-72.411h-876.31v72.411zM0 464.189h1024v-72.397h-1024v72.397zM400.413 199.032h623.587v-72.397h-623.587v72.397z" />
<glyph unicode="&#xe93d;" glyph-name="Compare" d="M1023.519 268.99c-0.734 16.639-4.95 33.928-13.175 50.791l-134.33 272.448c-15.070 30.599-37.785 48.246-61.966 48.246-24.063 0-46.558-17.39-61.797-47.513l-137.178-273.181c-8.447-16.844-12.868-34.15-13.636-50.791h-0.357v-41.453c0-97.039 92.823-173.172 211.4-173.172 118.543 0 211.521 76.15 211.521 173.172v41.453h-0.479zM811.676 108.073c-108.731 0-154.723 65.399-154.723 109.925h311.101c-5.001-55.261-46.010-109.925-156.379-109.925zM964.043 268.99h-303.952c-1.997 0-3.72 0.118-5.086 0.409 0.597 1.467 1.45 3.292 2.491 5.342l148.066 284.171c4.165 7.972 7.561 9.967 8.192 10.034 0.63-0.051 4.214-2.066 8.277-10.052l144.96-283.351c1.142-2.372 1.962-4.369 2.594-6.007-1.554-0.357-3.311-0.545-5.546-0.545zM409.235 319.781l-134.345 272.448c-15.017 30.599-37.785 48.246-61.951 48.246-24.098 0-46.591-17.39-61.797-47.513l-137.196-273.181c-8.431-16.844-12.851-34.15-13.603-50.791h-0.343v-41.453c0-97.039 92.79-173.172 211.383-173.172 118.524 0 211.486 76.15 211.486 173.172v41.453h-0.461c-0.717 16.639-4.933 33.928-13.175 50.791zM210.532 108.073c-108.643 0-154.672 65.399-154.672 109.925h311.101c-4.984-55.261-46.028-109.925-156.43-109.925zM362.933 268.99h-303.933c-2.015 0-3.702 0.118-5.069 0.409 0.597 1.467 1.45 3.292 2.458 5.342l148.066 284.171c4.199 7.972 7.595 9.967 8.244 10.034 0.615-0.051 4.181-2.066 8.244-10.052l144.994-283.351c1.126-2.372 1.962-4.369 2.611-6.007-1.605-0.357-3.362-0.545-5.614-0.545zM584.233 683.379h341.685c17.151 0 31.095 13.993 31.095 31.214v7.337c0 17.151-13.943 31.162-31.095 31.162h-341.667c-13.006 27.050-40.326 45.874-72.257 45.874s-59.306-18.825-72.294-45.874h-341.667c-17.151 0-31.095-13.993-31.095-31.162v-7.337c0-17.202 13.926-31.214 31.095-31.214h341.685c8.277-17.238 22.322-31.13 39.799-38.911v-101.511c0-17.938 14.59-32.58 32.46-32.58s32.46 14.627 32.46 32.58v101.511c17.475 7.765 31.523 21.659 39.799 38.911z" />
<glyph unicode="&#xe93e;" glyph-name="computer" d="M917.884 886.282h-811.799c-58.529 0-106.086-45.861-106.086-102.195v-487.263c0-56.349 47.557-102.137 106.086-102.137h260.155v-111.572h-147.983v-116.063h587.484v116.063h-148.027v111.572h260.169c58.514 0 106.116 45.802 106.116 102.137v487.263c0 56.335-47.601 102.195-106.116 102.195zM760.379 39.361v-28.57h-496.757v28.57h496.757zM411.663 83.115v108.851h200.645v-108.851h-200.645zM978.593 296.824c0-32.256-27.224-58.456-60.709-58.456h-811.799c-33.514 0-60.679 26.2-60.679 58.456v59.231h933.187v-59.231zM978.593 377.91h-933.187v406.177c0 32.241 27.18 58.456 60.679 58.456h811.799c33.485 0 60.709-26.214 60.709-58.456v-406.177zM512 259.141c20.027 0 36.396 15.682 36.396 35.035 0 19.28-16.369 35.035-36.396 35.035-20.114 0-36.367-15.74-36.367-35.035 0-19.354 16.252-35.035 36.367-35.035zM512 307.283c7.519 0 13.648-5.822 13.648-13.107s-6.129-13.239-13.648-13.239c-7.592 0-13.663 5.939-13.663 13.224s6.085 13.122 13.663 13.122z" />
<glyph unicode="&#xe93f;" glyph-name="electronics" d="M949.336 920.002h-874.642c-41.18 0-74.694-33.515-74.694-74.709v-694.122c0-41.195 33.515-74.68 74.694-74.68h275.46v-105.825h-136.955v-37.333h597.615v37.333h-141.607v105.825h280.112c41.166 0 74.68 33.486 74.68 74.68v694.122c0.015 41.195-33.5 74.709-74.665 74.709zM74.694 882.64h874.627c20.597 0 37.348-16.75 37.348-37.348v-515.124h-949.307v515.124c0 20.597 16.735 37.348 37.333 37.348zM631.862-29.349h-244.374v105.825h244.374v-105.825zM949.336 113.838h-874.642c-20.597 0-37.348 16.75-37.348 37.333v141.665h949.322v-141.665c0-20.582-16.735-37.333-37.333-37.333zM512.008 257.214c-25.746 0-46.695-20.948-46.695-46.681s20.948-46.695 46.695-46.695c25.732 0 46.681 20.948 46.681 46.681s-20.933 46.695-46.681 46.695zM512.008 182.534c-15.462 0-28.014 12.566-28.014 27.999s12.551 28.014 28.014 28.014c15.448 0 28.028-12.581 28.028-28.014s-12.566-27.999-28.028-27.999z" />
<glyph unicode="&#xe940;" glyph-name="Fashion-2" d="M708.926 639.292h-157.499c-8.689 0-15.725-7.051-15.725-15.725 0-8.66 7.036-15.695 15.725-15.695h157.499c8.689 0 15.695 7.022 15.695 15.695s-7.007 15.725-15.695 15.725zM831.172 898.966l-30.324 8.85-126.648 30.339c-10.299 2.414-21.444-4.345-23.917-14.598-0.249-1.2-0.395-2.721-0.395-4.008l-1.931-16.295c-11.205-47.497-69.614-82.662-135.937-82.662-66.308 0-124.66 34.96-135.703 81.345l-2.063 16.017c-0.059 2.896-0.205 4.315-0.497 5.617-2.136 8.865-10.094 15.096-19.353 15.096-1.551 0-3.072-0.176-4.506-0.527l-128.404-30.792-28.978-8.485c-29.402-5.749-173.487-54.753-192.475-471.253-0.219-5.383 1.755-10.679 5.427-14.525 3.745-3.935 8.967-6.159 14.335-6.159h137.722v-433.060c0-32.65 26.55-59.199 59.17-59.199h590.588c32.635 0 59.17 26.535 59.17 59.199v433.045h137.751c5.383 0 10.635 2.224 14.306 6.129 3.716 3.877 5.691 9.172 5.442 14.554-18.87 416.165-163.892 465.666-192.782 471.37zM983.551 446.48l-117.053-0.015v137.722c0 10.913-8.85 19.806-19.777 19.806s-19.806-8.894-19.806-19.806v-629.951h-629.776v629.951c0 10.913-8.865 19.806-19.777 19.806-10.898 0-19.777-8.894-19.777-19.806v-137.722h-117.082l1.507 20.976c21.927 312.803 121.456 376.362 141.174 385.929 2.823 1.39 11.205 5.237 15.827 6.451l2.077 0.424 31.524 9.143 103.712 24.868 6.32-15.754c22.863-57.385 92.507-97.466 169.377-97.466 76.856 0 146.499 40.080 169.406 97.466l6.217 15.769 103.946-24.926 36.072-10.284c12.755-2.794 129.603-38.544 154.354-391.604l1.536-20.976z" />
<glyph unicode="&#xe941;" glyph-name="Login" d="M512.018 426.924c142.319 0 258.082 114.825 258.082 255.914 0 141.056-115.764 255.829-258.082 255.829-142.353 0-258.133-114.773-258.133-255.829 0-141.107 115.78-255.914 258.133-255.914zM512.018 856.356c96.359 0 174.78-77.841 174.78-173.517 0-95.727-78.421-173.602-174.78-173.602-96.41 0-174.865 77.875-174.865 173.602 0 95.676 78.456 173.517 174.865 173.517zM685.535 392.893l-345.907 0.41-2.338-0.666c-37.189-12.425-128.615-44.185-174.763-70.349-65.622-37.274-98.884-79.087-98.884-124.331v-283.29h896.717v279.024c0 101.103-246.699 189.457-274.825 199.203zM360.107 313.192l304.333-0.342c105.182-38.554 212.582-82.842 212.582-119.16v-196.693h-730.078v200.96c0 34.901 107.384 77.807 212.020 115.012l1.143 0.222z" />
<glyph unicode="&#xe942;" glyph-name="Ouick-View" d="M803.991 172.111c-6.639 5.12-15.257 7.116-23.687 6.758 84.29 80.347 136.903 193.46 136.903 318.555 0 243.345-198.598 441.243-442.608 441.243-244.061 0-442.59-197.898-442.59-441.243 0-243.328 198.513-441.158 442.59-441.158 102.977 0 197.779 35.36 273.005 94.341-1.758-8.754-0.819-18.005 3.499-25.497 0 0 120.35-209.435 196.822-210.442 20.991-0.255 44.065 19.114 44.065 39.116-0.051 76.353-187.999 218.326-187.999 218.326zM474.617 129.735c-203.359 0-368.814 164.961-368.814 367.671 0 202.608 165.455 367.568 368.814 367.568 203.393 0 368.797-164.961 368.797-367.568 0-202.71-165.404-367.671-368.797-367.671z" />
<glyph unicode="&#xe944;" glyph-name="Smartphone" d="M755.61 938.666h-487.205c-35.065 0-63.605-28.511-63.605-63.576v-896.891c0-35.021 28.54-63.532 63.605-63.532h487.219c35.035 0 63.576 28.511 63.576 63.547v896.877c0 35.065-28.54 63.576-63.59 63.576zM779.22-21.786c0-13.034-10.576-23.625-23.596-23.625h-487.219c-13.034 0-23.64 10.606-23.64 23.625v80.369h534.454v-80.369zM779.22 69.525h-534.454v805.565c0 13.034 10.606 23.611 23.64 23.611h487.219c13.034 0 23.596-10.576 23.596-23.611v-805.565zM303.309 881.893c-23.464 0-42.569-19.090-42.569-42.555s19.105-42.54 42.569-42.54c23.464 0 42.54 19.076 42.54 42.54 0 23.45-19.090 42.555-42.54 42.555zM303.309 801.903c-20.641 0-37.42 16.794-37.42 37.42 0 20.641 16.779 37.435 37.42 37.435s37.42-16.794 37.42-37.435c0-20.626-16.779-37.42-37.42-37.42zM483.518-28.442h56.993c14.117 0 25.6 11.483 25.6 25.6v12.829c0 14.117-11.483 25.6-25.6 25.6h-56.993c-14.146 0-25.615-11.483-25.615-25.6v-12.829c0-14.117 11.469-25.6 25.615-25.6zM468.129 9.987c0 8.455 6.905 15.345 15.389 15.345h56.993c8.455 0 15.36-6.89 15.36-15.345v-12.829c0-8.455-6.905-15.375-15.36-15.375h-56.993c-8.485 0-15.389 6.919-15.389 15.375v12.829zM303.309 858.823c-10.781 0-19.5-8.748-19.5-19.5 0-10.781 8.719-19.5 19.5-19.5s19.5 8.733 19.5 19.5c0 10.752-8.719 19.5-19.5 19.5zM303.309 833.077c-3.467 0-6.261 2.794-6.261 6.261 0 3.452 2.794 6.261 6.261 6.261 3.452 0 6.261-2.809 6.261-6.261 0-3.467-2.809-6.261-6.261-6.261z" />
<glyph unicode="&#xe945;" glyph-name="smartphone-2" d="M756.524 938.667h-489.062c-42.13 0-76.42-34.289-76.42-76.42v-871.16c0-42.13 34.289-76.42 76.42-76.42h489.062c42.145 0 76.434 34.289 76.434 76.42v871.16c0 42.13-34.289 76.42-76.434 76.42zM267.462 908.108h489.062c25.293 0 45.861-20.568 45.861-45.861v-78.321h-580.783v78.321c0 25.278 20.582 45.861 45.861 45.861zM221.601 753.352h580.783v-624.712h-580.783v624.712zM756.524-54.759h-489.062c-25.293 0-45.861 20.553-45.861 45.846v106.979h580.783v-106.979c0-25.293-20.568-45.846-45.861-45.846zM511.993 73.241c-29.769 0-53.965-24.225-53.965-53.979 0-29.769 24.21-53.965 53.965-53.965s53.979 24.196 53.979 53.965c0.015 29.755-24.21 53.979-53.979 53.979zM511.993-4.144c-12.902 0-23.406 10.489-23.406 23.406 0 12.902 10.503 23.42 23.406 23.42 12.917 0 23.42-10.518 23.42-23.42 0-12.917-10.503-23.406-23.42-23.406z" />
<glyph unicode="&#xe946;" glyph-name="w-icon-art-class" d="M1023.999 543.978c0 78.368-30.136 151.134-82.611 199.644-44.195 40.801-98.864 59.717-158.361 54.845-104.291-8.602-151.397-60.536-173.999-120.998-6.437 20.7-19.296 38.504-36.178 51.319l66.168 106.281-12.786 8.002-65.992-105.973c-14.615 8.031-31.379 12.625-49.198 12.625-15.946 0-30.97-3.76-44.444-10.284l-61.984 104.189-12.947-7.768 61.838-103.911c-18.55-12.64-32.696-31.218-39.879-52.972-21.461 61.999-66.943 110.743-172.522 119.477-59.541 4.93-114.298-14.044-158.464-54.888-52.489-48.51-82.64-121.29-82.64-199.629 0-79.085 21.885-140.601 65.056-182.924 24.080-23.568 52.402-38.738 80.899-48.657-25.777-32.857-40.011-73.38-40.011-115.41 0-103.238 84.001-187.239 187.283-187.239 44.18 0 89.077 19.208 125.518 53.177 16.268-34.89 48.701-53.177 94.812-53.177 50.573 0 74.228 25.908 87.834 53.294 34.817-33.208 85.157-53.294 135.496-53.294 103.282 0 187.283 84.001 187.283 187.239 0 41.196-13.693 81.001-38.563 113.581 26.903 8.66 53.44 22.573 75.911 44.999 41.474 41.255 62.482 104.686 62.482 188.453zM714.767 317.269c-29.229 0-57.229 15.595-81.952 29.346-9.128 5.12-17.76 9.684-26.113 13.518-0.658 85.245 0.307 169.976 5.193 221.237 28.117 26.098 64.179 40.465 102.857 40.465 83.709 0 151.821-68.304 151.821-152.275s-68.099-152.289-151.807-152.289zM511.056 727.019c44.093 0 79.977-35.915 79.977-80.065 0-36.53-24.694-67.060-58.121-76.657-4.784-0.98-9.596-1.946-14.542-2.37l-6.012-0.015c-10.664 0.585-18.667 1.521-25.806 3.204-32.067 10.416-55.474 40.289-55.474 75.838-0.015 44.166 35.871 80.065 79.977 80.065zM169.128 469.574c0 83.957 68.084 152.26 151.807 152.26 31.409 0 61.779-9.83 87.117-27.708 5.588-51.86 7.227-143.015 7.168-234.184-10.489-4.769-20.847-11.088-30.94-17.263-20.481-12.494-41.679-25.425-63.345-25.425-83.723 0.015-151.807 68.318-151.807 152.319zM22.616 543.934c0 70.966 28.161 139.372 75.326 182.953 39.411 36.427 88.229 53.338 141.289 48.964 113.728-9.406 150.329-65.027 164.842-152.655-25.338 13.81-53.821 21.344-83.152 21.344-96.187 0-174.438-78.485-174.438-174.95 0-64.603 35.139-120.939 87.161-151.251-46.667 3.174-108.476 15.551-152.787 58.941-38.621 37.846-58.238 93.905-58.238 166.656zM128.576 196.944c0 39.938 14.483 78.368 40.757 108.344 47.633-12.026 92.691-11.001 115.863-10.43 5.208 0.146 11.132 0.293 12.655 0.088l0.307 1.317c7.475-0.995 15.025-1.653 22.778-1.653 28 0 53.031 15.259 75.091 28.688 6.568 4.023 12.933 7.914 19.135 11.264-0.468-116.639-3.365-226.724-3.935-246.984-33.617-35.036-76.32-55.166-118.014-55.166-90.774-0.015-164.637 73.79-164.637 164.535zM513.542 32.395c-43.288 0-69.284 17.716-79.465 54.142l-0.234 0.775c1.126 40.026 9.318 348.131-1.317 487.576 17.292-12.786 29.419-20.276 43.815-24.504 10.854-3.92 22.485-6.173 34.671-6.173 10.664 0 20.905 1.638 30.589 4.652 16.195 3.862 31.613 10.503 46.506 19.881-9.699-130.961-0.307-413.435 1.887-474.264l-2.736-7.168c-12.567-32.974-29.916-54.918-73.716-54.918zM901.537 196.944c0-90.745-73.833-164.549-164.652-164.549-46.872 0-93.422 19.691-124.099 51.597l0.263 0.029c-0.088 2.136-4.681 123.265-6.1 250.92 4.798-2.545 9.787-5.281 14.937-8.177 25.747-14.337 57.785-32.198 92.91-32.198 6.671 0 13.225 0.453 19.691 1.2l0.19-0.395c3.584 1.404 17.672 1.258 30.019 1.2 24.606-0.205 60.156-0.366 97.094 7.621 25.586-29.814 39.748-67.85 39.748-107.247zM804.487 319.772c50.631 30.662 84.718 86.239 84.718 149.773 0 96.479-78.251 174.965-174.438 174.965-35.373 0-69.854-11.015-98.718-30.838 12.801 80.548 46.477 152.041 168.821 162.165 52.928 4.359 101.775-12.538 141.157-48.92 47.165-43.581 75.311-111.972 75.311-182.953 0-77.505-18.755-135.51-55.766-172.361-40.391-40.26-95.821-49.739-141.084-51.831z" />
<glyph unicode="&#xe947;" glyph-name="w-icon-bag" d="M968.734 678.35h-246.994c0.117 1.126 0.205 2.355 0.205 3.629v99.948c0 30.068-24.786 54.517-55.248 54.517h-309.412c-30.463 0-55.248-24.449-55.248-54.517v-99.948c0-1.273 0.088-2.487 0.205-3.629h-246.994c-30.463 0-55.248-24.464-55.248-54.517v-552.427c0-30.053 24.786-54.517 55.248-54.517h913.489c30.463 0 55.263 24.464 55.263 54.517v552.427c0 30.053-24.8 54.517-55.263 54.517zM357.284 785.556h309.412c1.946 0 3.687-1.697 3.687-3.629v-99.948c0-1.946-1.741-3.629-3.687-3.629h-309.412c-1.96 0-3.673 1.682-3.673 3.629v99.948c0 1.931 1.712 3.629 3.673 3.629zM604.088 305.014c0-1.946-1.741-3.644-3.687-3.644h-176.807c-1.96 0-3.687 1.697-3.687 3.644v72.69c0 1.931 1.726 3.629 3.687 3.629h176.807c1.946 0 3.687-1.697 3.687-3.629v-72.69zM51.559 381.331h316.991c-0.117-1.17-0.205-2.37-0.205-3.629v-72.69c0-30.068 24.786-54.532 55.248-54.532h176.807c30.463 0 55.234 24.464 55.234 54.532v72.69c0 1.273-0.088 2.487-0.205 3.629h316.976v-309.924c0-1.931-1.712-3.629-3.687-3.629h-913.474c-1.96 0-3.687 1.697-3.687 3.629v309.924zM55.246 627.477h913.489c1.975 0 3.687-1.697 3.687-3.644v-191.628h-920.862v191.628c0 1.946 1.726 3.644 3.687 3.644z" />
<glyph unicode="&#xe949;" glyph-name="w-icon-basketball" d="M512 938.667c-282.317 0-512-229.683-512-512s229.683-512 512-512 512 229.683 512 512-229.683 512-512 512zM945.167 292.377c-214.206 136.192-364.383 209.276-512.19 249.622-68.886 18.812-124.957 30.062-175.016 36.849 8.265 22.762 18.315 46.007 29.93 69.208 42.086-12.464 86.733-18.022 137.699-18.022 109.407 0 248.013 25.688 452.476 63.883 54.872-74.986 87.42-167.38 87.42-267.249 0-46.709-7.109-91.824-20.319-134.29zM267.381 702.108c-26.8 11.981-56.686 31.393-67.262 53.307 53.877 51.141 120.218 89.22 194.004 109.1-50.235-46.431-93.169-103.38-126.742-162.406zM846.336 732.653c-270.804-50.542-419.299-76.376-537.117-44.968 43.754 75.059 103.731 145.671 174.811 191.517 9.26 0.571 18.564 0.951 27.97 0.951 132.228 0 251.407-56.92 334.336-147.5zM168.741 722.515c20.334-28.701 54.93-48.391 78.146-59.173-13.195-26.726-24.488-53.409-33.529-79.375-43.227 3.964-83.105 4.944-124.65 5.179 18.944 49.137 46.197 94.149 80.033 133.369zM192.059 504.564c-3.277-18.33-5.91-36.059-8.016-53.248-40.331-2.94-87.025-20.597-123.831-62.347-1.039 12.434-1.697 25-1.697 37.698 0 41.062 5.573 80.779 15.843 118.623 42.511-0.102 82.666-0.717 125.952-4.315-3.262-12.434-6.159-24.678-8.251-36.411zM69.895 326.096c29.433 56.452 74.679 75.908 109.758 80.501-11.893-165.932 29.681-274.885 71.739-350.735-90.214 63.62-156.262 159.232-181.497 270.234zM330.181 11.347c-1.097 1.682-2.063 3.248-3.189 4.974-48.552 75.045-118.828 183.72-103.57 388.198 149.094-37.493 295.468-169.574 446.727-402.842-49.269-18.388-102.546-28.496-158.149-28.496-64.644 0-126.113 13.692-181.819 38.166zM711.007 19.291c-160.066 248.525-317.264 389.076-480.051 428.705-0.98 0.234-2.077 0.38-3.087 0.614 1.975 15.565 4.418 31.656 7.387 48.26 2.253 12.668 5.486 25.936 9.187 39.453 50.439-6.437 106.906-17.496 176.976-36.63 145.115-39.629 293.786-112.538 508.328-249.52-42.73-100.732-120.891-182.872-218.741-230.883z" />
<glyph unicode="&#xe94a;" glyph-name="w-icon-bathtub" d="M958.45 475.626h-779.284v256.198c0 65.070 50.883 118.014 113.436 118.014 30.451 0 57.859-12.695 79.593-36.798-61.457-21.207-105.48-82.284-105.48-147.426v-25.229h303.511v25.229c0 78.422-55.782 144.34-130.081 154.125-30.802 56.075-85.458 89.48-146.579 89.48-93.209 0-169.058-79.578-169.058-177.409v-256.242h-61.589c-35.277 0.015-62.919-29.427-62.919-66.986 0-34.385 20.374-59.175 53.413-65.406v-74.371c0-109.78 62.101-205.578 158.483-245.009l-12.753-41.113c-4.548-16.001 3.715-32.177 18.823-36.857 2.443-0.717 4.987-1.083 7.561-1.083 12.578 0 24.235 8.936 27.744 21.237l11.818 40.074c2.224-0.395 4.446-0.834 6.67-1.258 10.019-1.916 20.374-3.905 30.655-3.905h416.524c11.613 0 23.225 2.282 34.458 4.475 2.033 0.395 4.051 0.79 6.114 1.17l12.11-41.654c3.524-12.418 14.567-20.769 27.481-20.769 2.91 0 5.748 0.79 8.146 1.521 7.255 2.165 13.338 7.299 17.083 14.377 3.656 6.948 4.49 14.962 2.297 22.596l-11.759 42.225c94.803 40.162 158.308 137.773 158.308 243.926v74.635c25.054 7.167 50.824 34.165 50.824 65.128-0.044 37.003-29.456 67.103-65.552 67.103zM918.448 345.282v-76.492c0-109.751-89.494-199.026-199.523-199.026h-416.509c-108.975 0-194.345 87.446-194.345 199.040v76.478h810.378zM57.48 416.685c1.507 1.521 3.422 2.355 5.426 2.355h895.543c4.329 0 7.971-3.934 7.971-8.585 0-4.68-3.642-8.643-7.971-8.643h-895.543c-4.314 0-7.971 3.963-7.971 8.643 0 2.326 0.936 4.578 2.544 6.231zM334.271 696.986c12.301 33.39 47.212 66.328 87.666 66.328 40.469 0 75.366-32.937 87.666-66.328h-175.332zM333.218 566.627v68.872h-54.656v-68.872h54.656zM439.867 566.627v68.872h-42.809v-68.872h42.809zM499.131 505.141v68.857h-42.823v-68.857h42.823zM392.466 505.141v68.857h-54.671v-68.857h54.671zM558.365 566.627v68.872h-42.809v-68.872h42.809z" />
<glyph unicode="&#xe94b;" glyph-name="w-icon-bed" d="M1023.971 274.633c0.029 9.289-5.573 17.51-14.321 20.977l-2.516 0.995 1.521 2.253c10.035 15.184 15.345 32.812 15.345 50.922 0 52.034-43.023 94.354-95.92 94.354h-488.448l2.589 3.511c9.435 12.8 14.424 27.984 14.424 43.9 0 41.487-34.289 75.235-76.449 75.235h-116.648c-21.431 0-41.267-8.514-55.823-23.947l-3.803-4.037v143.901c0.015 52.005-43.023 94.31-95.92 94.31h-12.098c-52.882 0-95.905-42.306-95.905-94.31v-505.403c0-12.493 10.313-22.63 22.996-22.63h24.678v-78.336h132.14v78.336h646.596v-78.336h132.081v78.336h42.452c12.712 0 23.025 10.138 23.025 22.63v97.339zM263.592 521.476h116.663c16.794 0 30.457-13.429 30.457-29.945 0-16.501-13.663-29.915-30.457-29.915h-116.663c-16.794 0-30.457 13.414-30.457 29.915s13.663 29.945 30.457 29.945zM46.051 682.697c0 27.048 22.382 49.035 49.898 49.035h12.083c27.516 0 49.913-21.987 49.913-49.035v-385.404h-111.894v385.404zM133.837 121.545h-40.097v29.462h40.097v-29.462zM912.603 121.545h-40.141v29.462h40.141v-29.462zM977.993 199.925h-931.927v52.136h931.927v-52.136zM928.080 300.716h-724.113v98.085h724.201c27.458 0 49.825-22.001 49.825-49.035 0-27.048-22.396-49.050-49.913-49.050z" />
<glyph unicode="&#xe94c;" glyph-name="w-icon-birthday-cake" d="M904.179 608.873h-93.73v86.881c0.102 15.275-0.059 21.362-1.126 25.122-5.355 18.831-18.963 31.765-38.364 37.632 23.908 9.613 40.778 32.379 40.778 58.907 0 30.96-46.894 95.441-56.302 108.069l-9.803 13.183-9.832-13.169c-9.423-12.613-56.331-77.108-56.331-108.069 0-26.102 16.358-48.504 39.666-58.395-35.159-9.145-39.666-36.491-39.666-49.601v-100.562h-99.845v86.881c0.102 15.275-0.059 21.362-1.126 25.122-5.355 18.831-18.963 31.765-38.364 37.632 23.908 9.613 40.778 32.379 40.778 58.907 0 30.96-46.894 95.441-56.316 108.069l-9.774 13.183-9.832-13.169c-9.423-12.613-56.331-77.108-56.331-108.069 0-26.102 16.358-48.518 39.651-58.395-35.159-9.145-39.651-36.491-39.651-49.601v-100.562h-101.191l-0.015 82.741 0.015 4.141c0.088 15.275-0.088 21.362-1.141 25.122-5.37 18.831-18.977 31.765-38.393 37.632 23.923 9.613 40.792 32.379 40.792 58.907 0 30.96-46.894 95.441-56.316 108.069l-9.803 13.183-9.818-13.169c-9.408-12.613-56.316-77.108-56.316-108.069 0-26.102 16.343-48.518 39.651-58.395-35.159-9.145-39.651-36.491-39.651-49.601v-100.562h-96.655c-33.784 0-61.262-27.521-61.262-61.335v-326.94c0-31.852 24.464-57.809 55.526-60.764v-151.114c0-51.868 42.153-94.051 93.92-94.051h613.571c51.781 0 93.92 42.182 93.92 94.051v348.815c28.371 5.34 49.952 30.243 49.952 60.194v129.811c-0.015 33.814-27.477 61.335-61.262 61.335zM703.976 817.431c0 14.324 21.932 51.371 41.656 79.727 19.679-28.356 41.597-65.373 41.597-79.727 0-21.64-18.655-39.286-41.597-39.286-22.972 0-41.656 17.617-41.656 39.286zM703.976 709.435c0 7.711 0 28.151 41.656 28.151 15.246 0 34.604-4.053 39.973-22.855 0.424-2.634 0.38-13.988 0.336-18.831v-87.028h-81.98v100.562zM473.149 817.431c0 14.324 21.947 51.371 41.67 79.727 19.679-28.356 41.597-65.373 41.597-79.727 0-21.64-18.655-39.286-41.597-39.286-22.986 0-41.67 17.617-41.67 39.286zM473.149 709.435c0 7.711 0 28.151 41.67 28.151 15.246 0 34.604-4.053 39.973-22.855 0.424-2.634 0.366-13.988 0.336-18.831v-87.028h-81.995v100.562zM240.963 817.431c0 14.324 21.918 51.371 41.641 79.727 19.709-28.356 41.626-65.373 41.626-79.727 0-21.64-18.655-39.286-41.626-39.286-22.957 0-41.641 17.617-41.641 39.286zM240.963 709.435c0 7.711 0 28.151 41.641 28.151 15.275 0 34.633-4.053 40.017-22.855 0.424-2.634 0.351-13.988 0.336-18.831l-0.015-4.258 0.015-82.77h-81.995v100.562zM196.424 209.61h694.556v-123.198h-752.395v73.085c28.956 1.097 52.762 22.283 57.839 50.113zM890.982 234.147h-510.537c7.814 10.286 12.627 22.972 12.627 36.871v48.548c0 20.308 16.475 36.827 36.754 36.827h461.155v-122.246zM821.555-60.81h-613.557c-38.262 0-69.412 31.179-69.412 69.514v53.171h752.395v-53.171c0-38.335-31.136-69.514-69.427-69.514zM940.947 417.713c0-20.308-16.504-36.812-36.769-36.812h-474.353c-33.784 0-61.262-27.536-61.262-61.335v-48.548c0-20.294-16.489-36.812-36.754-36.812h-16.475c-20.265 0-36.754 16.519-36.754 36.812v73.055h-24.508v-73.055c0-13.886 4.814-26.57 12.613-36.871h-69.163v109.956c0 5.136 11.207 12.891 28.064 12.891 17.148 0 28.502-7.755 28.502-12.891h24.508c0 20.996-23.294 37.442-53.010 37.442-29.468 0-52.556-16.446-52.556-37.442v-123.49c0-20.294-16.489-36.812-36.769-36.812h-16.446c-20.279 0-36.754 16.519-36.754 36.812v326.926c0 20.308 16.475 36.812 36.754 36.812h784.364c20.265 0 36.769-16.504 36.769-36.812v-129.825z" />
<glyph unicode="&#xe94d;" glyph-name="w-icon-bow" d="M393.272 417.379l-285.049 285.868c276.329 186.531 553.727-48.512 556.301-51.161l40.715 36.267c-35.229 40.818-356.779 270.316-655.507 39.925l-24.593-18.961 329.611-330.548 38.52 38.608zM775.713 617.486l-36.179-40.832c2.619-2.575 233.274-277.076 47.152-553.815l-285.064 285.868-38.505-38.622 329.596-330.563 18.917 24.666c229.514 299.298 4.257 618.419-35.916 653.297zM1016.184 922.695c-10.3 14.176-29.348 19.575-49.229 13.518l-225.622-69.302c-17.161-5.281-29.202-17.103-33.005-32.464-3.818-15.346 1.287-31.454 14.001-44.197l57.656-57.729-458.778-452.942-98.445 38.974-222.652-223.267 162.114-17.088 16.122-163.533 223.237 221.555-38.739 107.823 455.706 449.898 54.482-54.526c9.802-9.831 21.945-15.244 34.19-15.244 19.546 0 35.828 12.977 42.515 33.883l71.364 223.12c4.988 15.566 3.248 30.328-4.915 41.52zM224.736 43.703l-10.68 86.726-85.117 10.592 109.037 109.373 67.078-24.227 3.116-3.964 25.339-70.53-108.773-107.969zM901.954 687.622l-131.040 131.245 191.929 59.031-60.889-190.276z" />
<glyph unicode="&#xe94e;" glyph-name="w-icon-bridge-lamp" d="M801.81 356.508c70.116 0 127.138 53.585 127.138 119.429s-57.023 119.429-127.138 119.429c-23.201 0-45.817-5.939-65.654-17.232l-187.058 141.372 3.262 3.072c12.244 11.498 19.003 26.814 19.003 43.067 0 16.267-6.758 31.568-19.003 43.096l-7.958 7.461 0.351 0.366c5.252-4.827 12.112-7.607 20.275-7.753 7.417 0 14.468 2.619 19.851 7.417l34.801 30.939c11.542 10.284 12.069 27.516 1.141 38.385l-45.246 44.939c-10.547 10.445-29.769 10.957-40.887 1.053l-34.831-30.896c-5.603-4.974-8.821-11.703-9.040-18.973-0.249-7.285 2.56-14.16 7.899-19.412l6.29-6.217-1.521-1.419-23.142 21.753c-12.244 11.44-28.54 17.803-45.846 17.803s-33.602-6.363-45.861-17.861l-36.908-34.64c-16.53 3.394-33.514 5.193-50.47 5.193-61.69 0-119.707-22.601-163.33-63.577-11.235-10.533-21.328-22.221-29.959-34.655l-12.917-18.476 85.344-80.18c-10.957-14.19-16.984-31.393-16.984-49.006 0-46.299 40.097-83.954 89.382-83.954 18.725 0 37.083 5.617 52.166 15.945l102.957-96.71 19.661 12.083c13.297 8.133 25.717 17.657 36.952 28.219 52.313 49.108 76.187 119.97 64.498 188.316l165.378-125.002c-13.063-19.163-19.88-41.15-19.88-63.899 0-34.64 15.828-65.186 43.564-87.933l-208.576-297.256h-201.569c-15.931 0-32.549-15.974-32.549-30.91v-31.993h-78.22c-15.931 0-28.921-14.936-28.921-29.872v-56.262c0-14.95 12.99-27.092 28.921-27.092h610.646c15.945 0 30.032 12.127 30.032 27.092v56.262c0 14.936-14.087 29.872-30.032 29.872h-77.108v31.993c0 14.936-17.657 30.91-33.631 30.91h-118.463l190.744 271.553c10.635-2.633 21.533-5.837 32.446-5.837zM308.017-22.449h476.355v-12.581h-562.46v12.581h86.105zM329.024 15.279v25.161h348.179v-25.161h-348.179zM725.784 475.937c0 39.38 34.114 71.432 76.055 71.432 41.896 0 75.982-32.037 75.982-71.432 0-39.365-34.085-71.418-75.982-71.418-41.94 0-76.055 32.051-76.055 71.418zM252.896 565.099c-21.051 0-38.224 16.077-38.224 35.884 0 7.197 2.267 14.058 6.378 19.807l53-49.753c-6.173-3.833-13.458-5.939-21.153-5.939zM225.233 675.941l-63.899 60.022c4.023 4.681 8.324 9.172 12.815 13.4 33.982 31.89 79.142 49.489 127.167 49.489 17.379 0 34.348-2.37 50.587-6.802l4.623-1.375c13.575-4.067 26.346-9.582 38.268-16.384 0.439-0.278 0.892-0.571 1.39-0.848 2.253-1.317 4.447-2.648 6.597-4.052 0.951-0.6 1.872-1.229 2.809-1.814 1.726-1.17 3.423-2.37 5.135-3.569 0.98-0.717 1.975-1.434 2.999-2.15 1.726-1.331 3.408-2.648 5.091-3.994 0.834-0.673 1.653-1.317 2.472-1.975 2.458-2.077 4.857-4.198 7.256-6.422 0.293-0.278 0.571-0.658 0.892-0.922 3.979-3.833 7.797-7.695 11.308-11.791 0.761-0.878 1.39-1.843 2.136-2.692 2.999-3.613 5.91-7.183 8.587-11.001 0.497-0.717 0.892-1.419 1.404-2.165 2.736-3.994 5.325-8.104 7.651-12.288 0.19-0.263 0.293-0.541 0.424-0.805 35.065-63.606 24.283-143.917-32.446-197.21-4.52-4.286-9.304-8.28-14.277-12.054l-188.989 177.403zM480.505 756.559c-1.097 1.39-2.224 2.779-3.365 4.111-1.697 1.989-3.438 3.964-5.208 5.91-1.039 1.156-2.033 2.311-3.101 3.423-2.765 2.882-5.603 5.764-8.587 8.587-0.088 0.117-0.19 0.219-0.307 0.307-0.015 0.029-0.044 0.073-0.102 0.088-3.92 3.686-7.987 7.139-12.127 10.533-0.848 0.702-1.653 1.317-2.501 2.019-4.081 3.218-8.265 6.29-12.566 9.187-0.805 0.527-1.551 1.053-2.414 1.565-9.596 6.363-19.661 11.981-30.106 16.794l24.766 23.274c5.179 4.871 14.234 4.842 19.354 0l71.988-67.614c2.56-2.399 3.979-5.647 3.979-9.084 0-3.394-1.39-6.641-3.979-9.114l-21.372-20.070c-0.468 0.775-1.024 1.463-1.492 2.253-1.697 2.604-3.423 5.222-5.252 7.782-1.024 1.463-2.107 2.896-3.174 4.301-1.434 1.946-2.896 3.847-4.432 5.749zM536.591 905.963l55.999-55.59-9.494-8.499-56.028 55.648 9.523 8.441z" />
<glyph unicode="&#xe94f;" glyph-name="w-icon-calendar" d="M929.837 832.113h-133.25v99.298h-51.36v-99.298h-205.411v99.298h-51.345v-99.298h-205.397v99.298h-51.345v-99.298h-137.58c-51.916 0-94.148-42.027-94.148-93.666v-722.846c0-51.652 42.232-93.68 94.148-93.68h835.705c51.916 0 94.148 42.027 94.148 93.68v722.846c-0.015 51.638-42.246 93.666-94.163 93.666zM972.625 15.602c0-23.479-19.193-42.597-42.788-42.597h-835.705c-23.596 0-42.802 19.12-42.802 42.597v722.846c0 23.464 19.207 42.583 42.802 42.583h137.58v-91.954h51.345v91.954h205.411v-91.954h51.36v91.954h205.411v-91.954h51.36v91.954h133.25c23.596 0 42.788-19.105 42.788-42.583v-722.846h-0.015zM224.91 561.327h132.825v-101.346h-132.825v101.346zM445.565 561.327h132.84v-101.346h-132.84v101.346zM671.383 561.327h132.855v-101.346h-132.855v101.346zM224.91 392.443h132.825v-101.375h-132.825v101.375zM445.565 392.443h132.84v-101.375h-132.84v101.375zM671.383 392.443h132.855v-101.375h-132.855v101.375zM224.91 238.246h132.825v-101.375h-132.825v101.375zM445.565 238.246h132.84v-101.375h-132.84v101.375zM671.383 238.246h132.855v-101.375h-132.855v101.375z" />
<glyph unicode="&#xe950;" glyph-name="w-icon-camera" d="M932.104 748.715h-196.93l-65.624 131.438h-315.085l-65.638-131.438h-196.93c-54.14 0-91.897-35.387-91.897-90.112v-593.408c0-54.74 24.62-92.014 78.775-92.014h866.45c54.14 0 78.775 37.274 78.775 92.014v593.408c0 54.725-37.742 90.112-91.897 90.112zM393.846 840.699h236.31l39.38-92.043h-315.070l39.38 92.043zM971.484 65.195c0-20.158-6.32-39.439-26.258-39.439h-866.45c-19.953 0-26.258 19.28-26.258 39.439v591.506c0 20.173 19.441 39.439 39.38 39.439h853.328c19.939 0 26.258-19.266 26.258-39.439v-591.506zM512.001 614.425c-133.5 0-242.117-109.744-242.117-244.677s108.617-244.663 242.117-244.663 242.117 109.787 242.117 244.677c0 134.934-108.617 244.663-242.117 244.663zM512.001 187.782c-99.284 0-180.063 81.657-180.063 181.965 0 100.337 80.764 181.965 180.063 181.965 99.269 0 180.063-81.627 180.063-181.965 0-100.308-80.794-181.965-180.063-181.965zM517.253 511.659c-0.863 0.161-5.486 0.995-12.99 0.995-17.072 0-51.054-4.535-86.689-34.699-72.836-61.733-50.937-131.394-49.971-134.349 4.301-13.063 16.428-21.826 30.135-21.826 2.984 0 5.925 0.395 8.777 1.243l7.826 2.37 0.351 1.419c11.103 7.124 17.276 20.729 14.629 34.114-0.234 1.404-5.237 34.202 35.84 69.003 22.352 18.944 36.908 20.992 42.116 20.992 0.819 0 1.346-0.059 1.068 0.044 2.575-0.731 5.193-1.068 7.812-1.068 14.789 0 26.419 11.074 27.648 26.288 1.375 16.633-10.313 32.227-26.551 35.474z" />
<glyph unicode="&#xe951;" glyph-name="w-icon-cart" d="M906.526 740.874h-147.69c-15.726 116.912-137.201 197.793-239.177 197.793h-15.287c-101.976 0-223.451-80.881-239.177-197.793h-147.705c-62.757 0-80.911-18.637-80.911-83.12v-625.605c0-64.79 51.332-117.482 114.41-117.482h722.037c63.093 0 114.395 52.692 114.395 117.482v625.605c0.015 64.483-18.125 83.12-80.896 83.12zM328.668 740.874c16.033 77.663 103.907 134.744 175.704 134.744h15.287c71.797 0 159.685-57.081 175.689-134.744h-366.68zM97.946 657.755c0 9.669 0.278 15.755 0.571 19.5 3.657 0.307 9.582 0.6 18.988 0.6h145.788v-167.673h62.83v167.658h371.8v-167.673h62.83v167.673h145.744c9.392 0 15.316-0.293 18.973-0.6 0.293-3.774 0.541-9.874 0.541-19.5v-625.605c0-30.032-23.771-54.433-53.029-54.433h-721.993c-29.257 0-53.043 24.4-53.043 54.433v625.62z" />
<glyph unicode="&#xe952;" glyph-name="w-icon-category" d="M511.993-85.333c-282.319 0-511.993 229.673-511.993 511.993s229.673 512.007 511.993 512.007 512.007-229.688 512.007-512.007-229.688-511.993-512.007-511.993zM511.993 887.542c-254.117 0-460.882-206.751-460.882-460.882 0-254.117 206.766-460.868 460.882-460.868 254.131 0 460.882 206.751 460.882 460.868 0 254.131-206.751 460.882-460.882 460.882zM705.491 484.002c31.655 0 57.327-25.672 57.327-57.313 0-31.684-25.672-57.357-57.327-57.357-31.641 0-57.313 25.672-57.313 57.357 0.015 31.641 25.672 57.313 57.313 57.313zM511.978 484.002c31.67 0 57.342-25.672 57.342-57.313 0-31.684-25.672-57.357-57.342-57.357-31.626 0-57.313 25.672-57.313 57.357 0 31.641 25.687 57.313 57.313 57.313zM318.494 484.002c31.67 0 57.342-25.672 57.342-57.313 0-31.684-25.672-57.357-57.342-57.357-31.641 0-57.313 25.672-57.313 57.357 0 31.641 25.672 57.313 57.313 57.313z" />
<glyph unicode="&#xe953;" glyph-name="w-icon-comments" d="M650.396 695.126h-532.425v-52.116h532.439v52.116zM117.971 537.154h277.624v52.101h-277.624v-52.101zM1023.999 544.382l-13.431 22.634h-0.307c-10.461 13.797-27.229 22.254-44.435 22.254h-196.554v140.21c0 38.729-31.573 70.244-70.375 70.244h-628.507c-38.802 0-70.39-31.515-70.39-70.244v-396.4c0-38.743 31.588-70.244 70.39-70.244h62.329v-160.854l187.892 160.854h78.13v-28.721c0-30.784 25.092-55.833 55.95-55.833h299.337l145.769-124.671v124.671h66.044c30.827 0 55.95 25.063 55.95 55.833v299.322c0 3.658-0.395 7.315-1.141 10.944h3.351zM399.853 544.367c-0.746-3.614-1.126-7.257-1.126-10.915v-218.529h-98.028l-115.63-99.33-0.088 99.33h-114.591c-9.979 0-18.084 8.149-18.084 18.142v396.4c0 10.008 8.12 18.128 18.084 18.128h628.507c9.979 0 18.084-8.134 18.084-18.128v-140.21h-262.306c-9.086 0-17.982-2.311-26.497-6.876-8.515-4.624-15.714-11.383-20.894-19.664l-4.302-7.286-4.58-11.047h1.448zM854.69 223.171l-0.029-71.751-83.47 71.78h-316.514c-5.984 0-10.856 4.916-10.856 10.915v299.322c0 6.028 4.872 10.93 10.856 10.93h511.151c5.999-0.059 10.856-4.945 10.856-10.886v-299.395c0-6.028-4.887-10.915-10.886-10.915h-111.108zM472.467 273.034h422.37v44.888h-422.37v-44.888zM702.439 397.881h-229.971v-44.918h229.971v44.918z" />
</font>
</defs>
</svg>
